<?xml version="1.0" standalone="no"?>
<!DOCTYPE svg PUBLIC "-//W3C//DTD SVG 1.1//EN" "http://www.w3.org/Graphics/SVG/1.1/DTD/svg11.dtd" >
<svg>
<metadata>
Created by FontForge 20110222 at Mon Sep 12 15:55:27 2011
 By System Administrator
Copyright (c) LDO Fonts, 2004. All rights reserved.
</metadata>
<defs>
<font id="OregonLDOBook" horiz-adv-x="176" >
  <font-face 
    font-family="Oregon LDO Book"
    font-weight="400"
    font-stretch="normal"
    units-per-em="1000"
    panose-1="2 11 5 3 6 4 2 2 2 4"
    ascent="800"
    descent="-200"
    x-height="469"
    cap-height="684"
    bbox="2 -308 1045 922"
    underline-thickness="50"
    underline-position="-50"
    unicode-range="U+0020-FB02"
  />
<missing-glyph horiz-adv-x="278" 
 />
    <glyph glyph-name=".notdef" horiz-adv-x="278" 
 />
    <glyph glyph-name=".null" horiz-adv-x="0" 
 />
    <glyph glyph-name="nonmarkingreturn" horiz-adv-x="278" 
 />
    <glyph glyph-name="space" unicode=" " horiz-adv-x="278" 
 />
    <glyph glyph-name="space" unicode="&#xa0;" horiz-adv-x="278" 
 />
    <glyph glyph-name="fraction" unicode="&#x2044;" horiz-adv-x="329" 
d="M285 682q9 -3 20 -3q10 0 14 1q-70 -181 -137 -353.5t-138 -352.5q-9 3 -20 3q-10 0 -14 -1z" />
    <glyph glyph-name="fi" unicode="&#xfb01;" horiz-adv-x="507" 
d="M293 679q-27 15 -57 15q-24 0 -41 -9t-27.5 -23.5t-15 -34t-4.5 -40.5q0 -9 1 -23t3 -30.5t4 -35t5 -34.5h56q12 0 23 0.5t23 0.5q-1 -5 -1 -8v-8q0 -10 1 -15q-6 0 -14.5 0.5t-13.5 0.5q-17 1 -37.5 1.5t-37.5 0.5q0 -109 0.5 -220t3.5 -221q-9 2 -19 3t-20 1t-19 -1
t-19 -3q7 112 7.5 220.5t0.5 220.5q-11 0 -27 -0.5t-27 -1.5q-5 0 -9 -0.5t-9 -0.5q1 5 1 15q0 3 -0.5 8t-0.5 8q9 0 15.5 -0.5t15.5 -0.5h41q0 30 6 64.5t17.5 68.5t27.5 63.5t36 49.5q17 17 44.5 31.5t55.5 14.5q5 0 15 -2q0 -7 -0.5 -15t-1.5 -15q-1 -12 -1.5 -23
t-0.5 -22zM390 285q0 45 -1.5 93t-5.5 91q10 -2 19.5 -3t20.5 -1t20 1t19 3q-4 -43 -5.5 -91t-1.5 -93v-105q0 -45 1.5 -93t5.5 -91q-10 2 -19 3t-20 1t-20.5 -1t-19.5 -3q4 43 5.5 91t1.5 93v105zM376 651q0 20 13.5 33.5t33.5 13.5q19 0 32.5 -13.5t13.5 -33.5
q0 -19 -13.5 -32.5t-32.5 -13.5q-20 0 -33.5 13.5t-13.5 32.5z" />
    <glyph glyph-name="fl" unicode="&#xfb02;" horiz-adv-x="513" 
d="M293 679q-27 15 -57 15q-24 0 -41 -9t-27.5 -23.5t-15 -34t-4.5 -40.5q0 -9 1 -23t3 -30.5t4 -35t5 -34.5h56q12 0 23 0.5t23 0.5q-1 -5 -1 -8v-8q0 -10 1 -15q-6 0 -14.5 0.5t-13.5 0.5q-17 1 -37.5 1.5t-37.5 0.5q0 -109 0.5 -220t3.5 -221q-9 2 -19 3t-20 1t-19 -1
t-19 -3q7 112 7.5 220.5t0.5 220.5q-11 0 -27 -0.5t-27 -1.5q-5 0 -9 -0.5t-9 -0.5q1 5 1 15q0 3 -0.5 8t-0.5 8q9 0 15.5 -0.5t15.5 -0.5h41q0 30 6 64.5t17.5 68.5t27.5 63.5t36 49.5q17 17 44.5 31.5t55.5 14.5q5 0 15 -2q0 -7 -0.5 -15t-1.5 -15q-1 -12 -1.5 -23
t-0.5 -22zM396 466q0 34 -0.5 73t-1 77.5t-2 74t-3.5 61.5q10 -2 19.5 -3t20.5 -1t20 1t19 3q-2 -26 -3.5 -60.5t-2.5 -73t-1 -78v-74.5v-184q0 -34 0.5 -73t1 -77.5t2 -74t3.5 -61.5q-10 2 -19 3t-20 1t-20.5 -1t-19.5 -3q2 25 3.5 60t2 73.5t1 78t0.5 74.5v184z" />
    <glyph glyph-name="Lslash" unicode="&#x141;" horiz-adv-x="486" 
d="M124 427q0 65 -2.5 128.5t-5.5 128.5q11 -2 22.5 -3t22.5 -1t22 1t22 3q-3 -66 -5.5 -128.5t-2.5 -128.5v-49q24 15 51.5 32.5t56.5 35.5q2 -5 6.5 -12.5t8.5 -13.5q-21 -11 -53 -29t-70 -40v-94q0 -51 0.5 -96.5t1.5 -79.5q0 -11 0.5 -24.5t0.5 -24.5q71 0 138.5 2
t139.5 11q-3 -11 -3 -25t3 -24q-47 2 -89.5 3t-89.5 1t-91.5 -1.5t-91.5 -3.5q3 66 5.5 129t2.5 129v52q-30 -17 -52 -32t-33 -23q-3 5 -7 12.5t-9 14.5q28 15 52 29.5t49 28.5v92z" />
    <glyph glyph-name="lslash" unicode="&#x142;" horiz-adv-x="270" 
d="M103 336q-20 -13 -41.5 -27t-34.5 -22q-3 5 -6 10.5t-6 10.5q21 13 42.5 26t45.5 28v104q0 34 -0.5 73t-1.5 77.5t-2.5 74t-3.5 61.5q11 -2 20 -3t20 -1t20 1t20 3q-3 -26 -4.5 -60.5t-2 -73t-1 -78t-0.5 -74.5v-61q20 12 40 24.5t36 23.5q5 -13 13 -21l-17 -10h-1
q-13 -8 -30.5 -18.5t-40.5 -24.5v-97q0 -34 0.5 -73t1.5 -77.5t2.5 -74t3.5 -61.5q-11 2 -20 3t-20 1t-20 -1t-20 -3q3 25 4.5 60t2 73.5t1 78t0.5 74.5v54zM22 284q1 1 5 3q0 -3 2 -5l-7 2v0zM22 284q-1 -1 -1 0h1v0z" />
    <glyph glyph-name="Zcaron" unicode="&#x17d;" horiz-adv-x="597" 
d="M21 5q40 55 85 118t90 127.5t87.5 126.5t78.5 115t62.5 93t39.5 60q-18 1 -41 1.5t-39 0.5q-36 0 -79 -1t-86.5 -3t-83.5 -4.5t-70 -5.5q2 5 2.5 12t0.5 13q0 8 -0.5 13.5t-2.5 12.5q10 -1 27.5 -1.5t39 -1t43.5 -0.5h41q54 -1 120 -1h145q20 0 42.5 1t43.5 3q5 0 9 0.5
t8 0.5v-11q-22 -26 -59.5 -76.5t-82.5 -113t-92.5 -131t-90 -130.5t-75 -112t-46.5 -74q24 -2 48 -3.5t44 -1.5q37 0 86 1.5t98.5 4t94 6t73.5 6.5q-3 -12 -3 -28q0 -14 3 -27q-36 1 -66 2t-57 1.5t-53 1t-55 0.5q-39 0 -87.5 -0.5t-95.5 -1t-86.5 -1.5t-60.5 -2v10z
M426 901h25q-31 -42 -58.5 -80t-59.5 -79h-62q-31 41 -59 79t-58 80h25l124 -109z" />
    <glyph glyph-name="zcaron" unicode="&#x17e;" horiz-adv-x="470" 
d="M25 2q37 45 75.5 94.5t76 99t72 96t63.5 85.5q11 15 24 32t21 28q-8 0 -40.5 -1t-75 -3t-87 -4.5t-75.5 -5.5q1 5 1 10v12q0 6 -0.5 12t-1.5 12q32 -3 93.5 -3.5t153.5 -0.5q43 0 70 0.5t58 3.5v-7q-27 -35 -58.5 -76t-63.5 -83.5t-63.5 -84t-59 -78.5t-49 -66t-34.5 -47
q43 0 79.5 0.5t73 2t76.5 4t92 7.5q-1 -6 -1.5 -12t-0.5 -11q0 -11 3 -23q-15 0 -28 0.5t-29 1.5q-96 3 -191 3q-68 0 -134 -3q-11 -1 -21 -1.5t-19 -0.5v7zM363 726h25q-31 -41 -58.5 -79t-59.5 -80h-62q-31 42 -59 80t-58 79h25l124 -108z" />
    <glyph glyph-name="hungarumlaut" unicode="&#x2dd;" horiz-adv-x="468" 
d="M169 709q10 10 20.5 16.5t21.5 6.5q8 0 18 -6.5t10 -20.5q0 -16 -11.5 -26t-22.5 -18q-38 -23 -74 -46.5t-74 -47.5h-28zM372 709q10 10 20.5 16.5t21.5 6.5q8 0 18 -6.5t10 -20.5q0 -16 -11.5 -26t-23.5 -18q-37 -23 -73 -46.5t-74 -47.5h-28z" />
    <glyph glyph-name="exclam" unicode="!" horiz-adv-x="174" 
d="M81 173q-2 29 -5 56.5t-5 57.5q-5 64 -10.5 126.5t-10 113.5t-7 85t-2.5 41q0 25 14 35t31 10t31 -10t14 -35q0 -7 -2.5 -41t-7 -85t-10 -113.5t-10.5 -126.5q-2 -29 -5 -57.5t-5 -56.5h-10zM33 41q0 21 16 36.5t37 15.5t37 -15.5t16 -36.5q0 -22 -16 -37.5t-37 -15.5
t-37 15.5t-16 37.5z" />
    <glyph glyph-name="quotedbl" unicode="&#x22;" horiz-adv-x="289" 
d="M47 698h42v-282h-42v282zM198 698h42v-282h-42v282z" />
    <glyph glyph-name="numbersign" unicode="#" horiz-adv-x="442" 
d="M155 438h-74q7 17 11.5 37t4.5 36h73q7 35 12.5 59.5t9 41.5t5.5 27.5t3 16.5q4 -1 8 -1h9h12q-2 -5 -4.5 -13.5t-6 -24.5t-9 -41.5t-12.5 -64.5h125q7 35 12.5 59.5t9 41.5t5.5 27.5t3 16.5q4 -1 8 -1h9h12q-2 -5 -4.5 -13.5t-6 -24.5t-9 -41.5t-12.5 -64.5h73
q-7 -16 -11.5 -36t-4.5 -37h-73l-46 -221h74q-7 -16 -11.5 -36.5t-4.5 -36.5h-73q-3 -15 -6.5 -31t-5.5 -27q-10 -43 -13.5 -61t-5.5 -27h-1q-2 1 -7 1.5t-8 0.5q-5 0 -13 -2q1 5 3.5 13.5t6 25t9.5 42.5t14 65h-125q-4 -15 -7.5 -31t-5.5 -27q-9 -43 -12.5 -61t-5.5 -27h-1
q-2 1 -7 1.5t-8 0.5q-5 0 -13 -2q1 5 3.5 13.5t6 25t9.5 42.5t14 65h-73q7 16 11.5 36.5t4.5 36.5h73zM307 438h-127l-45 -221h127zM60 -2q-1 -2 -1.5 -4t-1.5 -4l-5 7q2 0 3 0.5t3 0.5h2v0zM212 -2q-1 -2 -1.5 -4t-1.5 -4l-5 7q2 0 3 0.5t3 0.5h2v0zM352 656q-2 1 -3 1
t-2 1l6 5q0 -1 -0.5 -2.5t-0.5 -3.5v-1v0zM200 656q-2 1 -3 1t-2 1l6 5q0 -1 -0.5 -2.5t-0.5 -3.5v-1v0z" />
    <glyph glyph-name="dollar" unicode="$" horiz-adv-x="442" 
d="M212 307q-45 18 -78.5 35.5t-55.5 39t-33 48t-11 62.5q0 72 48 119.5t130 58.5q0 20 -0.5 39.5t-4.5 36.5q5 -2 8.5 -2h9.5h10t9 2q-4 -18 -4.5 -36t-0.5 -38q34 0 58.5 -4t42.5 -10.5t30.5 -14.5t22.5 -15q-9 -16 -14 -33t-11 -41h-4q-5 13 -14 28t-23.5 28.5t-36 22.5
t-51.5 11v-269q44 -17 78 -33.5t57.5 -36.5t36 -46t12.5 -61q0 -37 -12.5 -71.5t-36 -62t-57.5 -47.5t-78 -28q0 -29 0.5 -56.5t4.5 -53.5q-5 2 -9 2h-10h-10t-9 -2q4 23 5 49.5t1 56.5q-9 -1 -16 -1h-17q-45 0 -84.5 11.5t-76.5 40.5q8 19 11.5 37t6.5 43h5
q19 -32 40 -52.5t42.5 -32t44 -16t44.5 -4.5v296zM239 16q54 12 84.5 53t30.5 92q0 17 -3.5 33t-15.5 32.5t-34.5 34t-61.5 35.5v-280zM212 643q-48 -8 -78.5 -42t-30.5 -82q0 -50 27.5 -81.5t81.5 -51.5v257z" />
    <glyph glyph-name="percent" unicode="%" horiz-adv-x="851" 
d="M22 508q0 35 11.5 65t32 52t50 34.5t65.5 12.5t65 -12.5t49.5 -34.5t32 -52t11.5 -65t-11.5 -65t-32 -51.5t-49.5 -34t-65 -12.5t-65.5 12.5t-50 34t-32 51.5t-11.5 65zM512 147q0 35 11.5 65t32 51.5t50 34t65.5 12.5t65 -12.5t49.5 -34t32 -51.5t11.5 -65t-11.5 -65
t-32 -51.5t-49.5 -34t-65 -12.5t-65.5 12.5t-50 34t-32 51.5t-11.5 65zM577 147q0 -29 5.5 -56t17.5 -47.5t29.5 -33t41.5 -12.5t41.5 12.5t29 33t17 47.5t5.5 56t-5.5 56t-17 47.5t-29 33t-41.5 12.5t-41.5 -12.5t-29.5 -33t-17.5 -47.5t-5.5 -56zM87 508q0 -29 5.5 -56
t17.5 -47.5t29.5 -33t41.5 -12.5t41.5 12.5t29 33t17 47.5t5.5 56t-5.5 56t-17 47.5t-29 33t-41.5 12.5t-41.5 -12.5t-29.5 -33t-17.5 -47.5t-5.5 -56zM591 693q10 -3 23 -3q4 0 7 0.5t7 1.5q-94 -185 -186 -365.5t-185 -364.5q-6 3 -11.5 3.5t-10.5 0.5q-10 0 -15 -2z" />
    <glyph glyph-name="ampersand" unicode="&#x26;" horiz-adv-x="641" 
d="M142 524q0 31 11 58t31.5 47t48.5 31.5t61 11.5q57 0 93 -27.5t36 -81.5q0 -28 -13.5 -54t-34 -49t-45.5 -41.5t-48 -31.5q7 -8 14 -17t12 -17q40 -51 80.5 -102t79.5 -95q38 52 68 99.5t54 97.5q6 -9 14 -16.5t16 -13.5q-29 -46 -62 -91t-75 -96q30 -35 62 -69.5
t63 -69.5q-1 0 -1 -1q-1 0 -1 1q-24 3 -51 3q-11 0 -23.5 -1t-23.5 -3q-2 0 -3.5 -0.5t-3.5 -0.5q-9 14 -26.5 38.5t-40.5 50.5q-23 -23 -47 -42t-50.5 -32.5t-56.5 -20.5t-66 -7q-38 0 -72 10.5t-60 31.5t-41 52t-15 72q0 32 14.5 63.5t39.5 59.5t59 51.5t74 40.5
q-31 45 -51 85t-20 76zM99 166q0 -29 11.5 -55.5t32 -46.5t48.5 -32.5t62 -12.5q53 0 91.5 20t75.5 57q-51 62 -101 126t-95 127q-60 -35 -92.5 -76t-32.5 -107zM381 564q0 39 -23.5 64t-62.5 25q-42 0 -67 -28.5t-25 -71.5q0 -31 19.5 -74t48.5 -79q55 34 82.5 78.5
t27.5 85.5z" />
    <glyph glyph-name="quotesingle" unicode="'" horiz-adv-x="144" 
d="M48 698h42v-282h-42v282z" />
    <glyph glyph-name="parenleft" unicode="(" horiz-adv-x="215" 
d="M188 684q-38 -49 -61 -96.5t-36 -96.5t-17.5 -101t-4.5 -110t4.5 -110t17.5 -101t36 -96.5t61 -96.5q-3 -3 -6.5 -5.5t-6.5 -5.5q-77 86 -118 193.5t-41 221.5q0 54 10.5 109.5t30.5 109t50 103.5t68 93z" />
    <glyph glyph-name="parenright" unicode=")" horiz-adv-x="215" 
d="M26 -125q37 49 60.5 96.5t36.5 96.5t17.5 101.5t4.5 110.5t-4.5 110t-17.5 101t-36.5 96.5t-60.5 96.5q8 6 13 11q77 -86 118 -193.5t41 -221.5q0 -54 -10.5 -109.5t-31 -109t-50 -103.5t-67.5 -93z" />
    <glyph glyph-name="asterisk" unicode="*" horiz-adv-x="366" 
d="M160 682q5 -1 10 -1.5t13 -0.5q7 0 13 0.5t11 1.5l-17 -162q30 23 64 48t65 48q3 -11 9.5 -23t14.5 -20l-147 -66q33 -15 73 -33t74 -35q-8 -7 -14.5 -18t-9.5 -22l-130 90q4 -37 9 -79t9 -79q-6 2 -11 2.5t-13 0.5q-7 0 -11.5 -0.5t-9.5 -1.5l12 157q-29 -20 -63 -45
t-63 -46q-6 26 -23 41l145 67q-34 15 -74 34t-75 34q8 8 14.5 19.5t8.5 22.5l130 -95z" />
    <glyph glyph-name="plus" unicode="+" horiz-adv-x="512" 
d="M4 273h231v230h42v-230h231v-43h-231v-230h-42v230h-231v43z" />
    <glyph glyph-name="comma" unicode="," 
d="M94 69q3 12 12 23.5t28 11.5q11 0 21.5 -7t10.5 -22q0 -11 -3.5 -19.5t-8.5 -16.5v2q-1 -1 -0.5 -1.5t-0.5 -1.5q-31 -53 -62.5 -107t-63.5 -107q-6 4 -9 5z" />
    <glyph glyph-name="hyphen" unicode="-" horiz-adv-x="336" 
d="M46 256h243v-53h-243v53z" />
    <glyph glyph-name="period" unicode="." 
d="M34 41q0 21 16 36.5t37 15.5t37 -15.5t16 -36.5q0 -22 -16 -37.5t-37 -15.5t-37 15.5t-16 37.5z" />
    <glyph glyph-name="slash" unicode="/" horiz-adv-x="334" 
d="M284 701q10 -3 23 -3q7 0 17 2q-69 -184 -136.5 -361t-137.5 -360q-11 3 -23 3q-7 0 -17 -2z" />
    <glyph glyph-name="zero" unicode="0" horiz-adv-x="534" 
d="M35 328q0 70 12 132.5t39.5 109.5t71.5 74.5t109 27.5q72 0 117 -27.5t70.5 -74.5t35 -109.5t9.5 -132.5q0 -68 -13.5 -130.5t-42 -110t-72.5 -75.5t-104 -28q-72 0 -117 27.5t-70.5 74t-35 109t-9.5 133.5zM108 328q0 -69 8 -127.5t26.5 -102t49 -68t75.5 -24.5
t75.5 24.5t49 68t26.5 102t8 127.5q0 68 -8 127t-26.5 102t-49 67.5t-75.5 24.5t-75.5 -23t-49 -65t-26.5 -101t-8 -132z" />
    <glyph glyph-name="one" unicode="1" horiz-adv-x="278" 
d="M155 620q-29 -16 -62 -34.5t-62 -34.5q-5 7 -12.5 15.5t-15.5 13.5q58 24 116 51t111 54l2 -1q-4 -66 -6 -132t-2 -132v-169q0 -66 2 -128.5t6 -126.5q-11 2 -21.5 3t-21.5 1t-21.5 -1t-21.5 -3q5 66 7 127.5t2 127.5v369z" />
    <glyph glyph-name="two" unicode="2" horiz-adv-x="480" 
d="M72 577q31 50 74.5 72.5t104.5 22.5q39 0 73 -10t59.5 -31.5t40.5 -54.5t15 -79q0 -34 -8 -63t-24 -57.5t-40 -57t-55 -60.5v1q-7 -7 -14.5 -15.5t-15.5 -16.5q-38 -38 -82.5 -83t-78.5 -93h107q71 0 125 2t96 5q-3 -15 -3 -32t3 -32q-54 2 -105 3.5t-105 1.5
t-106.5 -1.5t-106.5 -3.5v7q69 68 120.5 121t88 96t60 77.5t37 66.5t19 63t5.5 66q0 39 -9.5 67.5t-26 47.5t-38 28t-45.5 9q-33 0 -57 -11.5t-40 -28.5t-25 -36.5t-12 -34.5v-2z" />
    <glyph glyph-name="three" unicode="3" horiz-adv-x="459" 
d="M66 615q21 20 54.5 38.5t87.5 18.5q39 0 73 -8.5t59.5 -26.5t40.5 -45.5t15 -65.5q0 -36 -13 -64t-33 -48.5t-44.5 -33.5t-46.5 -19v-15q25 -2 55 -9.5t55.5 -24.5t42.5 -46t17 -72q0 -45 -18.5 -83.5t-51.5 -66.5t-80 -44t-104 -16q-46 0 -83 10.5t-63 21.5
q4 10 6.5 25.5t3.5 30.5q10 -11 23.5 -22.5t31 -21t38.5 -16t45 -6.5q39 0 70.5 13t53 36t33.5 55t12 71q0 43 -11 73t-30.5 48.5t-46.5 26.5t-60 8q-11 0 -21 -1t-19 -3q1 5 1 14q0 10 -1 15q18 -3 40 -3q37 0 60.5 15.5t36.5 39t17.5 51.5t4.5 54q0 34 -10 58.5t-26 40.5
t-36 23.5t-41 7.5t-40 -7t-34.5 -18t-26.5 -26t-17 -31l-1 -3zM39 72q-1 1 -1.5 2t-1.5 2l6 -1q-2 -1 -1.5 -1t-1.5 -1v-1v0z" />
    <glyph glyph-name="four" unicode="4" horiz-adv-x="508" 
d="M5 193q44 62 91.5 129t92 130.5t82 118.5t62.5 93q8 -2 16.5 -3t16.5 -1q15 0 27 3q-2 -44 -3.5 -96.5t-2.5 -109t-1 -114.5v-112q29 0 54.5 2t42.5 4q-3 -12 -3 -26t3 -26q-17 2 -42.5 3t-54.5 1v-48q0 -33 1.5 -70t3.5 -65q0 -4 0.5 -5.5t0.5 -4.5q-10 2 -19 3t-20 1
t-20.5 -1t-19.5 -3q2 29 5 68t3 77v48q-22 0 -65 -1t-90.5 -2t-92 -2t-68.5 -2v11zM321 592q-16 -21 -37 -50.5t-45 -62.5t-48.5 -68.5t-47 -68.5t-41.5 -62t-31 -49h250v361z" />
    <glyph glyph-name="five" unicode="5" horiz-adv-x="461" 
d="M124 366q23 12 48.5 21t70.5 9q43 0 78.5 -15t60 -40.5t38 -59.5t13.5 -71q0 -47 -18 -88t-51 -72t-78.5 -48.5t-100.5 -17.5q-43 0 -84 9t-73 29v3q5 13 9 28.5t6 27.5v1q20 -38 62 -57t84 -19q31 0 60.5 11.5t51.5 35.5t35.5 60.5t13.5 85.5q0 45 -12.5 76t-32.5 50.5
t-47 28.5t-55 9q-41 0 -67.5 -12.5t-37.5 -19.5q-2 1 -2.5 2t-2.5 2q7 40 8 82t1 86q0 42 -1.5 86t-5.5 79q1 1 2 1.5t2 1.5q8 -1 22 -2t34 -3q22 -2 52 -3t72 -1q47 0 83 0.5t56 1.5l2 -2q-6 -24 -6 -53v-11q-24 4 -61 6t-77 3.5t-76.5 2t-60.5 0.5z" />
    <glyph glyph-name="six" unicode="6" horiz-adv-x="491" 
d="M379 643v-2q-26 8 -51 8q-40 0 -72.5 -18t-57 -47.5t-42.5 -68t-29 -79t-16.5 -80.5t-5.5 -73q12 19 28 39t37 36t47 26t58 10q26 0 59.5 -8t63.5 -28.5t51 -56.5t21 -93q0 -50 -15.5 -91t-44 -70.5t-69.5 -46t-91 -16.5q-43 0 -82.5 15.5t-69.5 49.5t-48 89t-18 133
q0 83 19 156.5t56.5 128.5t93 86t127.5 30h23.5t16.5 -2zM391 187q0 39 -8.5 72t-25 57t-41.5 37t-59 13q-31 0 -57.5 -13t-46 -37t-31 -57t-11.5 -72q0 -40 10.5 -73.5t29.5 -57.5t44.5 -37t55.5 -13q33 0 59 13t44 37t27.5 57.5t9.5 73.5z" />
    <glyph glyph-name="seven" unicode="7" horiz-adv-x="464" 
d="M459 646q-91 -155 -184 -320.5t-176 -329.5q-8 2 -17 3t-20 1q-6 0 -12.5 -0.5t-12.5 -1.5q48 76 99.5 161.5t99.5 167t89 152t68 117.5q-46 0 -137 -1.5t-219 -9.5q3 21 3 41t-3 38q42 -3 72 -4.5t59 -2.5q15 0 39 -0.5t51 -1t54 -0.5h48q16 0 29.5 0.5t26.5 0.5h43v-10
z" />
    <glyph glyph-name="eight" unicode="8" horiz-adv-x="505" 
d="M31 177q0 60 34 110.5t113 76.5v15q-19 5 -39 16t-36 28.5t-26.5 40t-10.5 51.5q0 31 13 59.5t37.5 50t59 34.5t76.5 13q49 0 84.5 -12t59 -32t34.5 -46t11 -54q0 -46 -29 -87t-85 -59v-15q18 -3 43 -12.5t48 -28.5t39 -50t16 -76q0 -49 -17.5 -89t-47.5 -68t-70 -43.5
t-86 -15.5q-47 0 -87.5 13t-70 37.5t-46.5 60.5t-17 82zM394 182q0 38 -10 70t-28.5 55.5t-44.5 36.5t-59 13t-59 -13t-44.5 -36.5t-28.5 -55.5t-10 -70q0 -39 10 -71t28.5 -55.5t44.5 -36.5t59 -13t59 13t44.5 36.5t28.5 55.5t10 71zM368 514q0 27 -6.5 51.5t-20.5 43
t-36 29.5t-52 11t-51.5 -11t-35.5 -29.5t-20.5 -43t-6.5 -51.5t6.5 -51.5t20.5 -43t35.5 -29.5t51.5 -11t52 11t36 29.5t20.5 43t6.5 51.5z" />
    <glyph glyph-name="nine" unicode="9" horiz-adv-x="498" 
d="M98 -4q-3 11 -8 23.5t-10 24.5q44 -38 98 -38q56 0 96 32.5t65.5 85t37 117.5t11.5 130q-29 -48 -70 -78t-101 -30q-89 0 -140.5 51.5t-51.5 145.5q0 45 15.5 83.5t44 67t69.5 45t91 16.5q44 0 84.5 -15.5t71 -50t48.5 -89.5t18 -133q0 -83 -20 -156t-57.5 -127
t-92 -85.5t-124.5 -31.5q-23 0 -43 3.5t-32 8.5zM384 486q0 36 -10 66t-28.5 51.5t-44.5 33.5t-57 12q-62 0 -101 -51t-39 -138q0 -90 35 -130t95 -40q36 0 64 16.5t47 44t29 62.5t10 73zM79 47q0 -1 0.5 -1.5t0.5 -1.5l-3 3h2v0z" />
    <glyph glyph-name="colon" unicode=":" horiz-adv-x="185" 
d="M38 412q0 21 16 37t37 16t37 -16t16 -37q0 -22 -16 -37.5t-37 -15.5t-37 15.5t-16 37.5zM38 41q0 21 16 36.5t37 15.5t37 -15.5t16 -36.5q0 -22 -16 -37.5t-37 -15.5t-37 15.5t-16 37.5z" />
    <glyph glyph-name="semicolon" unicode=";" horiz-adv-x="192" 
d="M98 69q3 12 12 23.5t28 11.5q11 0 21.5 -7t10.5 -22q0 -11 -3.5 -19.5t-8.5 -16.5v2q-1 -1 -0.5 -1.5t-0.5 -1.5q-31 -53 -62.5 -107t-63.5 -107q-6 4 -9 5zM73 412q0 21 15.5 37t36.5 16q22 0 37.5 -16t15.5 -37q0 -22 -15.5 -37.5t-37.5 -15.5q-21 0 -36.5 15.5
t-15.5 37.5z" />
    <glyph glyph-name="less" unicode="&#x3c;" horiz-adv-x="549" 
d="M3 275q127 59 252 117.5t252 117.5v-40l-474 -218q117 -54 236.5 -109.5t237.5 -109.5v-40q-128 60 -252 118.5t-252 118.5v45z" />
    <glyph glyph-name="equal" unicode="=" horiz-adv-x="559" 
d="M548 329h-504v42h504v-42zM548 132h-504v42h504v-42z" />
    <glyph glyph-name="greater" unicode="&#x3e;" horiz-adv-x="548" 
d="M41 33l474 219q-117 54 -236.5 109t-237.5 109v40q128 -60 252 -118.5t252 -118.5v-45q-127 -59 -252 -117.5t-252 -117.5v40z" />
    <glyph glyph-name="question" unicode="?" horiz-adv-x="286" 
d="M24 668q20 11 42.5 20.5t56.5 9.5q35 0 62 -10.5t45.5 -28t28 -41t9.5 -49.5q0 -28 -8.5 -52t-23 -45.5t-32.5 -40.5t-36 -37q-32 -32 -56.5 -64t-24.5 -70q0 -11 3.5 -22.5t11 -21t18.5 -15.5t25 -6q9 0 17 2t14 4q-6 -9 -8 -20q-5 -2 -12.5 -3t-17.5 -1q-12 0 -30 5.5
t-34.5 18.5t-28 33t-11.5 50q0 25 8 47t21 41.5t30 37t34 34.5q16 16 30.5 32t26 32.5t18.5 34.5t7 39t-8 37.5t-21.5 28t-30 17.5t-32.5 6q-26 0 -49 -11.5t-41 -29.5zM69 41q0 21 15.5 36.5t37.5 15.5q21 0 36.5 -15.5t15.5 -36.5q0 -22 -15.5 -37.5t-36.5 -15.5
q-22 0 -37.5 15.5t-15.5 37.5zM180 203q-1 -1 -2 -1t-2 -1q1 4 6 7l2 -7z" />
    <glyph glyph-name="at" unicode="@" horiz-adv-x="685" 
d="M456 519h41q-13 -61 -22 -104.5t-15 -73.5t-10 -48.5t-5.5 -30t-2 -17.5t-0.5 -11q0 -19 11 -29.5t28 -10.5q21 0 45 15t44.5 42t34 64t13.5 80q0 51 -12 94t-40.5 74t-76 48.5t-119.5 17.5q-62 0 -115 -25t-91 -69t-59.5 -103t-21.5 -128q0 -62 19.5 -108t54 -77.5
t82 -47t103.5 -15.5q34 0 66 7t60.5 18t53 24.5t44.5 27.5q-1 -8 -1 -10t-1 -9q-13 -12 -36 -27t-54 -28t-70.5 -22t-85.5 -9q-49 0 -100 18.5t-92.5 57t-68 96.5t-26.5 138q0 59 24 115t68.5 100t108 71t142.5 27q82 0 136 -20.5t86 -53.5t45.5 -75.5t13.5 -86.5
q0 -54 -17.5 -98t-45 -75.5t-61 -48.5t-65.5 -17q-40 0 -50.5 22.5t-10.5 61.5q-11 -15 -24.5 -30t-28.5 -27t-31.5 -19.5t-34.5 -7.5q-104 0 -104 130q0 49 14 90t38 71t56 46.5t68 16.5q30 0 51 -15t24 -47h10zM425 426q0 35 -13 58t-54 23q-30 0 -53 -20t-39 -50.5
t-24 -66.5t-8 -68q0 -49 14 -74t53 -25q31 0 54.5 24.5t39 59.5t23 73.5t7.5 65.5z" />
    <glyph glyph-name="A" unicode="A" horiz-adv-x="662" 
d="M342 698q17 -41 36.5 -87.5t39.5 -94.5q32 -77 65 -155t63.5 -148t55.5 -126.5t41 -89.5q-23 3 -45 3q-12 0 -25.5 -1t-24.5 -3q-6 21 -15 46t-19.5 52.5t-22 55t-21.5 53.5q-6 16 -13 33t-13 31q-33 1 -68.5 1.5t-68.5 0.5q-32 0 -64.5 -0.5t-63.5 -1.5
q-15 -37 -30 -74.5t-27.5 -72.5t-23.5 -67t-18 -57q-8 2 -16 3t-17 1q-15 0 -28 -3q81 177 158 349.5t154 351.5h11zM313 580l-119 -277q10 0 30.5 -0.5t32.5 -0.5q14 -1 27.5 -1h27.5q28 0 60.5 0.5t60.5 1.5z" />
    <glyph glyph-name="B" unicode="B" horiz-adv-x="520" 
d="M52 428q0 65 -2.5 128.5t-5.5 127.5q25 -2 51 -3t51 -1q14 0 27 0.5t27 1.5t27 2t27 1q42 0 80 -6.5t66.5 -22.5t45.5 -43.5t17 -68.5q0 -73 -46.5 -114.5t-121.5 -58.5l1 -10q89 -6 140 -45t51 -122q0 -55 -23 -93t-59.5 -61.5t-81 -34t-87.5 -10.5q-13 0 -25.5 0.5
t-24.5 1.5t-24.5 2t-24.5 1q-23 0 -46.5 -1t-46.5 -3q3 66 5.5 129t2.5 129v174zM125 237q0 -34 1 -68t3 -69q1 -17 1 -36.5t1 -36.5q19 -2 47 -3.5t58 -1.5q34 0 64.5 11.5t53.5 34t36.5 55.5t13.5 75q0 45 -16 73.5t-46 45t-72 23t-94 6.5h-51v-109zM185 373q36 0 72 7.5
t64 24.5t45.5 46t17.5 73q0 43 -15.5 69t-40.5 40t-55 19t-60 5q-48 0 -82 -6q-1 -16 -1 -33.5t-1 -34.5q-2 -32 -3 -64.5t-1 -64.5v-81h60z" />
    <glyph glyph-name="C" unicode="C" horiz-adv-x="655" 
d="M404 9q35 0 65.5 8.5t56.5 21t46.5 26.5t35.5 25l-8 -53q-10 -8 -29.5 -17.5t-46.5 -18t-60 -14t-70 -5.5q-79 0 -146 24t-115.5 70t-76 112.5t-27.5 151.5t27.5 151.5t77 112.5t118.5 70t152 24q63 0 117 -13t96 -32q-7 -15 -11 -35t-7 -36v-3q-11 12 -29 28t-42.5 30
t-56 24t-67.5 10q-61 0 -113 -19.5t-90.5 -60.5t-60.5 -103.5t-22 -147.5q0 -86 22 -148t60.5 -103t90.5 -60.5t113 -19.5zM610 90l-1 1l-1 -1l1 5z" />
    <glyph glyph-name="D" unicode="D" horiz-adv-x="706" 
d="M52 427q0 65 -2.5 129t-6.5 129q38 -2 74.5 -3.5t74.5 -1.5q19 0 37.5 0.5t38.5 1.5l38 2t39 1q87 0 149.5 -23t102.5 -65.5t59 -104t19 -138.5q0 -67 -16 -119.5t-43.5 -92.5t-63.5 -68t-76.5 -45.5t-83 -25.5t-82.5 -8q-17 0 -34 0.5t-34 1.5l-34 2t-34 1
q-32 0 -65.5 -1t-65.5 -3q4 66 6.5 128.5t2.5 128.5v174zM125 253q0 -54 1.5 -110.5t4.5 -109.5q23 -5 60.5 -8t77.5 -3q57 0 113.5 13.5t101.5 50.5t73 101.5t28 166.5q0 90 -22 147.5t-61 91t-93 46.5t-117 13q-48 0 -89 -3t-72 -7q-3 -49 -4.5 -104.5t-1.5 -110.5v-174z
" />
    <glyph glyph-name="E" unicode="E" horiz-adv-x="416" 
d="M53 428q0 65 -2.5 129t-6.5 128q46 -2 88.5 -3.5t88.5 -1.5q45 0 87.5 1.5t86.5 3.5q-1 -6 -1.5 -12t-0.5 -14q0 -7 0.5 -13t1.5 -12q-14 1 -24.5 2t-21.5 2q-21 2 -43.5 3.5t-48.5 3t-57 2t-70 0.5q0 -13 -0.5 -27t-1.5 -27q-1 -18 -1.5 -37.5t-0.5 -42.5t0.5 -46
t0.5 -43v-50q45 0 80.5 0.5t65 2t53.5 3t46 3.5q-1 -6 -1.5 -12t-0.5 -13t0.5 -12.5t1.5 -11.5q-27 2 -61.5 3.5t-69.5 2.5t-65.5 1.5t-48.5 0.5q0 -9 -0.5 -20t-0.5 -28.5v-42.5v-61q0 -58 0.5 -98t1.5 -60q33 0 70.5 0.5t74 1.5t69.5 3.5t58 6.5q-1 -6 -1 -13v-12v-12
t1 -12q-45 2 -87 3.5t-89 1.5q-46 0 -90 -1.5t-90 -3.5q4 66 6.5 129.5t2.5 129.5v174z" />
    <glyph glyph-name="F" unicode="F" horiz-adv-x="413" 
d="M53 427q0 65 -3 129t-6 129q46 -2 88.5 -3.5t88.5 -1.5q45 0 89.5 1.5t98.5 3.5q-1 -6 -1.5 -12t-0.5 -14q0 -7 0.5 -12.5t1.5 -11.5q-29 3 -67 5t-78 3.5t-76.5 2.5t-60.5 1v-19q-1 -32 -1.5 -61t-0.5 -58q0 -18 0.5 -34t0.5 -33v-66q65 0 131.5 2t127.5 8
q-1 -7 -1.5 -13t-0.5 -12t0.5 -12t1.5 -12q-26 2 -57.5 3.5t-65.5 2t-69 1t-67 0.5v-91q0 -66 2.5 -129t5.5 -128q-11 2 -22.5 3t-22.5 1t-22.5 -1t-22.5 -3q3 66 6 128.5t3 128.5v174z" />
    <glyph glyph-name="G" unicode="G" horiz-adv-x="713" 
d="M646 571q-16 19 -39 37t-51.5 32t-62.5 22.5t-72 8.5q-64 0 -119.5 -19.5t-96 -60.5t-63.5 -103.5t-23 -147.5q0 -76 20.5 -136.5t60 -102.5t96.5 -64.5t130 -22.5q22 0 46 2t46.5 6.5t41.5 11t33 15.5q1 30 1.5 62t0.5 63q0 28 -1 58t-3 56q0 4 -0.5 8.5t-0.5 9.5
q10 -2 21.5 -2.5t22.5 -0.5q20 0 38 3q-2 -23 -2.5 -69.5t-0.5 -128.5v-41q0 -10 0.5 -19t0.5 -20q-22 -8 -53.5 -16t-66.5 -14.5t-70 -11t-64 -4.5q-89 0 -161 23t-122 68t-77 112t-27 155q0 85 28 151.5t79 112.5t123.5 70t161.5 24q92 0 155 -18.5t98 -36.5
q-8 -14 -14.5 -34.5t-8.5 -37.5h-5z" />
    <glyph glyph-name="H" unicode="H" horiz-adv-x="683" 
d="M558 427q0 65 -2.5 128.5t-5.5 128.5q11 -2 22 -3t23 -1q11 0 22 1t22 3q-3 -66 -5.5 -128.5t-2.5 -128.5v-174q0 -66 2.5 -129t5.5 -128q-11 2 -22 3t-22 1q-12 0 -23 -1t-22 -3q3 66 5.5 128.5t2.5 128.5v96q-54 1 -108.5 1.5t-108.5 0.5t-108.5 -0.5t-108.5 -1.5v-96
q0 -66 2.5 -129t5.5 -128q-11 2 -22 3t-23 1q-11 0 -22 -1t-22 -3q3 66 5.5 128.5t2.5 128.5v174q0 65 -2.5 128.5t-5.5 128.5q11 -2 22 -3t22 -1q12 0 23 1t22 3q-3 -66 -5.5 -128.5t-2.5 -128.5v-40h16t21 -0.5t21.5 -0.5h17.5q70 -3 141 -3q33 0 71 0.5t70 2.5
q17 0 38 0.5t38 0.5v40z" />
    <glyph glyph-name="I" unicode="I" horiz-adv-x="181" 
d="M52 427q0 65 -2.5 128.5t-5.5 128.5q11 -2 22.5 -3t22.5 -1t22.5 1t22.5 3q-3 -66 -5.5 -128.5t-2.5 -128.5v-174q0 -66 2.5 -129t5.5 -128q-11 2 -22.5 3t-22.5 1t-22.5 -1t-22.5 -3q3 66 5.5 128.5t2.5 128.5v174z" />
    <glyph glyph-name="J" unicode="J" horiz-adv-x="286" 
d="M36 -262q44 2 69.5 23t38.5 57.5t16.5 86t3.5 109.5l5 413q0 65 -2.5 128.5t-5.5 128.5q11 -2 22.5 -3t22.5 -1t22.5 1t22.5 3q-4 -66 -6.5 -128.5t-2.5 -128.5v-55.5v-67t-0.5 -74t-0.5 -76.5q0 -68 -0.5 -127.5t-0.5 -94.5q0 -44 -14 -82.5t-40 -67t-62.5 -45.5
t-81.5 -17z" />
    <glyph glyph-name="K" unicode="K" horiz-adv-x="581" 
d="M88 0q-11 0 -22 -1t-23 -3q4 64 6.5 128t2.5 129v174q0 65 -2.5 128.5t-6.5 128.5q11 -2 22.5 -3t22.5 -1t22.5 1t22.5 3q-3 -66 -5.5 -128.5t-2.5 -128.5v-56q0 -13 11 -13q6 0 16 9q35 31 74 69t78.5 79.5t78 84.5t74.5 84q17 -4 40 -4q8 0 15.5 0.5t15.5 1.5
q-36 -32 -79 -72t-86.5 -82.5t-82.5 -83t-66 -71.5q42 -48 85.5 -97t85.5 -98l78 -90t80 -91q-13 2 -24 2.5t-23 0.5q-14 0 -27.5 -1t-26.5 -3q-37 45 -81 99.5t-85.5 104t-75.5 89t-49 54.5q-9 9 -16 9q-5 0 -7.5 -3.5t-2.5 -7.5v-88q0 -66 2.5 -129t5.5 -128
q-11 2 -22.5 3t-22.5 1zM37 -5q2 0 3 0.5t3 0.5v-6l-6 5v0z" />
    <glyph glyph-name="L" unicode="L" horiz-adv-x="411" 
d="M53 427q0 65 -3 128.5t-6 128.5q11 -2 22.5 -3t22.5 -1t22.5 1t22.5 3q-3 -66 -5.5 -128.5t-2.5 -128.5q0 -91 0.5 -174.5t1.5 -143.5q0 -20 0.5 -40t0.5 -37q70 0 138 2t140 11q-3 -11 -3 -25t3 -24q-47 2 -90 3t-90 1t-91.5 -1.5t-91.5 -3.5q3 66 6 129t3 129v174z" />
    <glyph glyph-name="M" unicode="M" horiz-adv-x="863" 
d="M140 698q69 -144 143 -282t152 -281q7 14 20.5 39t31 57.5t37.5 69t41 74.5q44 81 89.5 166.5t83.5 156.5h8q8 -69 14.5 -132t13.5 -126q13 -115 25 -223t28 -220q-21 3 -42 3q-11 0 -21.5 -1t-21.5 -3q-11 137 -23 269.5t-28 263.5l-40 -68q-63 -118 -123.5 -232
t-111.5 -229h-1q-39 82 -83 168t-88 171q-23 45 -49 95.5t-48 95.5q-8 -64 -17 -138.5t-17 -147t-13 -137.5t-6 -110q-15 3 -30 3q-7 0 -15.5 -0.5t-14.5 -2.5q13 84 27 173.5t27 180t24 178.5t20 169h8z" />
    <glyph glyph-name="N" unicode="N" horiz-adv-x="677" 
d="M616 -18q-52 61 -109.5 125.5t-117.5 129.5t-121 130.5t-120 127.5l-51 56v-25q-1 -29 -2 -75t-1 -119q0 -30 0.5 -77t2 -96.5t2.5 -93.5t3 -68q-6 2 -14.5 2.5t-15.5 0.5q-16 0 -31 -3q2 16 4.5 46t4.5 67.5t4 80.5t3.5 85.5t2.5 82.5t1 72q0 95 -0.5 163.5t-2.5 103.5
h9q10 -11 20.5 -22.5t21.5 -23.5q60 -65 126 -137t130.5 -141t122.5 -129.5t100 -103.5v138.5t-0.5 141.5t-2.5 137t-5 125q16 -3 29 -3q8 0 13.5 0.5t12.5 2.5q-2 -26 -5 -70.5t-5 -93.5t-3.5 -95t-1.5 -74q0 -38 0.5 -93l1 -110t1 -100.5t0.5 -64.5h-7z" />
    <glyph glyph-name="O" unicode="O" horiz-adv-x="811" 
d="M31 340q0 85 27.5 151.5t77 112.5t118 70t151.5 24t152 -24t118.5 -70t77 -112.5t27.5 -151.5t-27.5 -151.5t-77 -112.5t-118.5 -70t-152 -24t-151.5 24t-118 70t-77 112.5t-27.5 151.5zM691 340q0 85 -22 147.5t-60.5 103.5t-90.5 60.5t-113 19.5q-60 0 -112.5 -19.5
t-90.5 -60.5t-60 -103.5t-22 -147.5q0 -86 22 -148t60 -103t90.5 -60.5t112.5 -19.5q61 0 113 19.5t90.5 60.5t60.5 103t22 148z" />
    <glyph glyph-name="P" unicode="P" horiz-adv-x="489" 
d="M52 427q0 65 -2.5 128.5t-5.5 128.5q23 -2 46.5 -3t46.5 -1q13 0 31 1l36 2t33 1.5t26 0.5q15 0 37 -1t46 -5.5t48 -15t43 -29t31 -47t12 -69.5q0 -65 -28.5 -106t-69.5 -63.5t-87.5 -30.5t-82.5 -8q-23 0 -45 0.5t-42 2.5v-60q0 -66 2.5 -129t5.5 -128q-11 2 -22 3
t-22 1q-12 0 -23 -1t-22 -3q3 66 5.5 128.5t2.5 128.5v174zM125 347q17 -5 38.5 -7t38.5 -2q32 0 66.5 7t63 26.5t47 53.5t18.5 87q0 45 -12.5 73.5t-35 44t-55.5 21.5t-73 6h-96v-310z" />
    <glyph glyph-name="Q" unicode="Q" horiz-adv-x="830" 
d="M12 340q0 85 27.5 151.5t77.5 112.5t118.5 70t151.5 24t152 -24t118.5 -70t77 -112.5t27.5 -151.5q0 -70 -19.5 -127.5t-55 -102t-86 -74t-113.5 -44.5q26 -21 65.5 -51.5t82 -63.5t84.5 -64.5t74 -53.5q-23 -5 -40 -15.5t-26 -21.5q-28 25 -68 59.5t-83.5 70.5
t-85.5 70.5t-73 60.5q-8 -1 -15.5 -1h-15.5q-83 0 -151.5 24t-118.5 70t-77.5 112.5t-27.5 151.5zM673 340q0 85 -22 147.5t-60.5 103.5t-90.5 60.5t-113 19.5t-113 -19.5t-90.5 -60.5t-60 -103.5t-21.5 -147.5q0 -86 21.5 -148t60 -103t90.5 -60.5t113 -19.5t113 19.5
t90.5 60.5t60.5 103t22 148z" />
    <glyph glyph-name="R" unicode="R" horiz-adv-x="571" 
d="M52 427q0 65 -2.5 128.5t-6.5 128.5q28 -2 56 -3t55 -1q14 0 29 0.5t29 1.5t28.5 2t29.5 1q42 0 79 -8t65.5 -26t45 -48t16.5 -73q0 -48 -22 -82t-54.5 -57t-69.5 -35t-67 -16q10 -12 29 -36.5t39 -48.5q25 -32 54 -68.5t57 -72t53 -66t43 -51.5q-24 3 -48 3
q-14 0 -28.5 -1t-28.5 -3q-17 25 -48 68.5t-67.5 92.5t-75.5 96t-71 79h-46v-79q0 -66 2.5 -129t5.5 -128q-11 2 -22.5 3t-22.5 1t-22.5 -1t-22.5 -3q4 66 6.5 128.5t2.5 128.5v174zM125 365q16 -4 34 -5t39 -1q32 0 67 7.5t64.5 26t48.5 49t19 77.5q0 42 -15.5 68.5
t-39.5 42t-52.5 21.5t-55.5 6q-39 0 -63 -1.5t-40 -3.5q-2 -56 -4 -113t-2 -112v-62z" />
    <glyph glyph-name="S" unicode="S" horiz-adv-x="469" 
d="M54 120q9 -18 23 -37t34.5 -34.5t47 -25t60.5 -9.5q35 0 62.5 12t47 32.5t30 48t10.5 59.5q0 34 -12.5 58t-33 41t-47 29.5t-55.5 24.5q-31 12 -62 26.5t-55.5 36t-39.5 52.5t-15 77q0 41 15 75.5t43 59t68 38.5t89 14q46 0 80.5 -10.5t63.5 -33.5q-9 -17 -14 -35
t-11 -44h-4q-6 15 -15.5 31.5t-24 31t-35.5 24t-50 9.5q-30 0 -55 -9.5t-43 -27t-28 -41.5t-10 -53q0 -36 13 -60.5t34.5 -42t49 -29.5t57.5 -24q31 -12 60.5 -25.5t53 -33.5t38 -49t14.5 -71q0 -45 -16.5 -85.5t-48 -71t-76.5 -48.5t-103 -18q-59 0 -97 16.5t-64 37.5
q8 20 11.5 39.5t6.5 44.5h3z" />
    <glyph glyph-name="T" unicode="T" horiz-adv-x="536" 
d="M231 427q0 53 -0.5 107.5t-2.5 107.5q-26 0 -55 -0.5t-57.5 -2t-55 -3t-47.5 -4.5q3 12 3 26q0 13 -3 27q66 -2 127.5 -3.5t127.5 -1.5q64 0 127 1.5t128 3.5q-3 -14 -3 -28q0 -6 0.5 -13t2.5 -12q-21 3 -47.5 4.5t-55 3t-57 2t-55.5 0.5q-2 -53 -2.5 -107.5t-0.5 -107.5
v-174q0 -66 2.5 -129t5.5 -128q-11 2 -22.5 3t-22.5 1t-22.5 -1t-22.5 -3q3 66 5.5 128.5t2.5 128.5v174z" />
    <glyph glyph-name="U" unicode="U" horiz-adv-x="664" 
d="M572 360q0 137 -0.5 213.5t-4.5 109.5q18 -3 36 -3q12 0 24 3q-3 -36 -6 -84t-5 -103t-3.5 -113.5t-2.5 -113.5q-1 -66 -20 -119.5t-55.5 -90.5t-89 -57t-119.5 -20q-149 0 -217 69.5t-68 215.5q0 23 1 46.5t2 42.5q1 18 1.5 35.5t0.5 35.5q0 72 -1.5 131.5t-3.5 103.5
q0 6 -0.5 11.5t-0.5 10.5q11 -2 23.5 -3t23.5 -1q21 0 38 3q-2 -23 -4 -58.5t-3.5 -80t-2.5 -96t-1 -106.5q0 -35 1 -72.5t7.5 -73.5t20.5 -68t39.5 -56.5t65 -38.5t97.5 -14q57 0 96 16t64 43.5t38.5 62.5t20 73t7.5 75.5t1 70.5z" />
    <glyph glyph-name="V" unicode="V" horiz-adv-x="664" 
d="M328 0q-8 0 -15.5 -1t-14.5 -3q-23 62 -55.5 144.5t-69.5 174.5t-76.5 187t-75.5 181q22 -3 43 -3q11 0 24.5 1t24.5 3q22 -68 50 -142.5t58.5 -152.5t62.5 -157t64 -156q19 42 40.5 94t44 108t44.5 114t42 111.5t36.5 100t27.5 80.5q8 -2 16 -3t17 -1q14 0 28 3
q-79 -175 -149 -344t-137 -343q-13 4 -30 4zM292 -5q1 0 2.5 0.5t3.5 0.5l2 -4l-8 3v0z" />
    <glyph glyph-name="W" unicode="W" horiz-adv-x="1028" 
d="M276 0q-10 0 -17.5 -1t-15.5 -3q-9 29 -25.5 83.5t-36.5 121t-42.5 139.5t-43.5 139.5t-38.5 120.5t-27.5 83q19 -3 43 -3q13 0 23.5 1t22.5 3q19 -77 38.5 -146t40.5 -140.5t46 -150t55 -174.5q8 20 20.5 56.5t25.5 73.5q19 59 43 129.5t46 137.5t39.5 124t25.5 89
q13 -3 29 -3q15 0 30 3q7 -27 22.5 -76t34.5 -107.5t40 -123t40 -123t35 -106.5t25 -74q8 22 23.5 69t34.5 106t39 124t38.5 125.5t32.5 109.5t20 76q15 -3 32 -3q8 0 13.5 0.5t12.5 2.5q-10 -23 -28.5 -75t-41.5 -118t-48.5 -140t-48.5 -142.5t-41.5 -124.5t-28.5 -86
q-15 3 -31 3q-18 0 -31 -4q-45 143 -92 291.5t-98 299.5q-9 -23 -23 -62.5t-31.5 -89.5t-37 -106.5t-39.5 -114.5t-38.5 -114t-34.5 -103q-15 3 -31 3zM239 -5q3 0 4 1q1 -1 1 -2t1 -3l-6 4v0z" />
    <glyph glyph-name="X" unicode="X" horiz-adv-x="600" 
d="M317 409q23 33 43.5 65t41 65t41 68.5t42.5 76.5q8 -2 17.5 -3t17.5 -1h13t14 2q-14 -19 -23.5 -32t-22.5 -30q-44 -61 -87.5 -122.5t-83.5 -124.5q54 -92 114 -188.5t117 -187.5q-21 3 -46 3q-14 0 -27.5 -1t-27.5 -3q-5 11 -11 21t-11 21q-34 64 -71.5 133.5
t-80.5 134.5q-53 -78 -98.5 -155t-87.5 -155q-8 2 -17.5 3t-17.5 1q-5 0 -13 -0.5t-13 -1.5q60 87 115.5 170t113.5 171q-51 85 -103.5 171.5t-106.5 172.5q10 -2 21 -2.5t22 -0.5q14 0 27 1t26 3q35 -71 72.5 -136t82.5 -139h8z" />
    <glyph glyph-name="Y" unicode="Y" horiz-adv-x="595" 
d="M260 281q-10 17 -28 48.5t-41 70t-48 81t-48.5 81.5t-43 71t-31.5 50q10 -2 22.5 -2.5t23.5 -0.5q14 0 27 1t26 3q45 -88 93.5 -176t101.5 -179q25 38 50.5 82t51 90t49 92.5t44.5 90.5q8 -2 17.5 -3t19.5 -1h14.5t13.5 2q-46 -71 -83 -128.5t-66 -105t-51 -87t-39 -72.5
q0 -36 0.5 -77t1 -80.5t2 -75t3.5 -60.5q-12 2 -22.5 3t-21.5 1q-22 0 -44 -3q5 54 6 128t1 153z" />
    <glyph glyph-name="Z" unicode="Z" horiz-adv-x="609" 
d="M21 5q40 55 85 118t90 127.5t87.5 126.5t78.5 115t62.5 93t39.5 60q-18 1 -41 1.5t-39 0.5q-36 0 -79 -1t-86.5 -3t-83.5 -4.5t-70 -5.5q2 5 2.5 12t0.5 13q0 8 -0.5 13.5t-2.5 12.5q50 -4 154 -4h262q20 0 42.5 1t43.5 3q5 0 9 0.5t8 0.5v-11q-22 -26 -59.5 -76.5
t-82.5 -113t-92.5 -131t-90 -130.5t-75 -112t-46.5 -74q24 -2 48 -3.5t44 -1.5q37 0 86 1.5t98.5 4t94 6t73.5 6.5q-3 -12 -3 -28q0 -14 3 -27q-36 1 -66 2t-57 1.5t-53 1t-55 0.5q-39 0 -87.5 -0.5t-95.5 -1t-86.5 -1.5t-60.5 -2v10z" />
    <glyph glyph-name="bracketleft" unicode="[" horiz-adv-x="207" 
d="M51 408q0 70 -1.5 137.5t-4.5 136.5q9 -1 21.5 -1.5t25.5 -0.5q23 0 54 1t52 2v-9q0 -7 1 -11q-21 1 -44.5 2t-46.5 1q-4 -63 -6 -129t-2 -129v-256q0 -63 2 -129t6 -129q22 0 46.5 1t44.5 2q-1 -4 -1 -11q0 -6 1 -9q-22 1 -53 2t-54 1q-13 0 -25.5 -0.5t-21.5 -1.5
q3 70 4.5 136.5t1.5 137.5v256zM198 683q1 2 1 3t1 3l5 -6h-4h-3zM200 -127q-1 2 -1 4h2q1 0 2 1t2 1l-5 -6v0z" />
    <glyph glyph-name="backslash" unicode="\" horiz-adv-x="335" 
d="M10 700q10 -2 17 -2q12 0 23 3l274 -721q-10 2 -17 2q-13 0 -23 -3z" />
    <glyph glyph-name="bracketright" unicode="]" horiz-adv-x="209" 
d="M107 408q0 63 -2 129t-6 129q-22 0 -46.5 -1t-44.5 -2q1 4 1 11q0 2 -0.5 4.5t-0.5 4.5q21 -1 52.5 -2t54.5 -1q13 0 25.5 0.5t21.5 1.5q-3 -70 -4.5 -136.5t-1.5 -137.5v-256q0 -70 1.5 -137.5t4.5 -136.5q-9 1 -21.5 1.5t-25.5 0.5q-23 0 -54 -1t-53 -2q1 3 1 9
q0 7 -1 11q21 -1 44.5 -2t46.5 -1q4 63 6 129t2 129v256zM8 -123q0 -2 -0.5 -3t-0.5 -3l-5 6h4h2v0zM6 683q-1 -1 -2 -1t-2 -1l5 6q0 -3 1 -4h-2z" />
    <glyph glyph-name="asciicircum" unicode="^" horiz-adv-x="555" 
d="M254 655h48q59 -113 116.5 -224.5t115.5 -224.5h-43l-214 417q-52 -103 -107.5 -208.5t-107.5 -208.5h-42z" />
    <glyph glyph-name="underscore" unicode="_" horiz-adv-x="587" 
d="M44 -132v41h498v-41h-498z" />
    <glyph glyph-name="grave" unicode="`" horiz-adv-x="284" 
d="M66 661q-11 8 -22.5 18t-11.5 26q0 14 10 20.5t18 6.5q10 0 20.5 -6.5t21.5 -16.5q34 -35 69.5 -71t70.5 -71h-29z" />
    <glyph glyph-name="a" unicode="a" horiz-adv-x="476" 
d="M76 423q44 33 81 45t77 12q71 0 115 -39.5t44 -105.5q0 -28 -0.5 -55.5t-1.5 -56.5t-1.5 -60.5t-0.5 -64.5q0 -13 0.5 -27t5 -26t13.5 -19.5t26 -7.5h7t9 2v-12q-11 -5 -27 -8.5t-33 -3.5q-30 0 -46.5 20.5t-19.5 49.5q-20 -20 -38.5 -35.5t-38 -25.5t-40.5 -15t-46 -5
q-24 0 -47.5 8t-42 23.5t-29.5 37.5t-11 50q0 58 38.5 90.5t100.5 43.5q52 9 83 16t47.5 15t21 18.5t4.5 26.5q0 27 -6 51t-20 42.5t-36 29t-54 10.5q-41 0 -76.5 -17.5t-53.5 -51.5h-4v45zM326 253q-16 -5 -32.5 -9t-31.5 -7q-26 -5 -53.5 -12.5t-51 -20.5t-38.5 -33.5
t-15 -51.5q0 -25 8 -44t21 -32t29.5 -19.5t34.5 -6.5q41 0 74 23t51 52z" />
    <glyph glyph-name="b" unicode="b" horiz-adv-x="507" 
d="M496 247q0 -57 -17 -105.5t-47.5 -83t-71.5 -54t-89 -19.5q-47 0 -86.5 23t-59.5 53q-19 -14 -38 -30.5t-33 -30.5h-11q2 24 3.5 58t2.5 72.5t1.5 77.5t0.5 74v184q0 34 -0.5 73t-1 77.5t-2 74t-3.5 61.5q10 -2 19 -3t20 -1t21.5 1t22.5 3q-3 -21 -4.5 -66.5t-3 -102
t-2 -115.5t-1.5 -106q40 60 83 89t96 29q51 0 89 -19.5t63 -51.5t37 -74t12 -88zM417 250q0 48 -12 85t-31.5 61.5t-45.5 37.5t-53 13q-33 0 -62.5 -12t-51.5 -39t-35 -71.5t-13 -108.5q0 -103 39 -156t114 -53q32 0 59.5 17.5t48 49t32 76.5t11.5 100z" />
    <glyph glyph-name="c" unicode="c" horiz-adv-x="484" 
d="M36 232q0 65 22 112t57.5 77t81 44.5t93.5 14.5q52 0 94.5 -12t62.5 -29q-13 -25 -20 -61l-2 -2q-8 13 -20.5 27.5t-29 26.5t-37.5 20t-45 8q-48 0 -81.5 -17t-55 -47.5t-31.5 -71.5t-10 -89q0 -107 46.5 -161.5t134.5 -54.5q40 0 81 19.5t69 48.5q-2 -10 -2.5 -20.5
t-1.5 -20.5q-30 -24 -74.5 -41.5t-89.5 -17.5q-44 0 -87 13.5t-77.5 43.5t-56 77t-21.5 113zM448 87l-2 -2q1 2 1 3.5t1 3.5l1 -5h-1v0z" />
    <glyph glyph-name="d" unicode="d" horiz-adv-x="506" 
d="M390 91l-8 2q-8 -16 -22 -34.5t-35 -35t-49 -27.5t-64 -11q-38 0 -74 14t-64.5 44t-45.5 76t-17 110t18.5 111t49 78t68.5 46.5t77 15.5q54 0 92.5 -26t59.5 -75l9 2q1 47 1 98.5v101t-1 94t-2 77.5q4 -1 7 -1q8 -2 17 -2.5t17 -0.5q15 0 30 3q3 1 9 1q-3 -33 -5.5 -94.5
t-3.5 -134t-1.5 -149.5t-0.5 -141q0 -42 0.5 -85.5t1.5 -78.5q0 -17 0.5 -36t0.5 -37h-4t-4 1q-3 0 -8 0.5t-9.5 1t-7.5 1t-2 0.5q-14 0 -27 -3q-2 -1 -6 -1zM90 223q0 -62 13 -103t34 -65t46.5 -33.5t51.5 -9.5q41 0 70.5 20t48.5 53t28 74t9 83q0 99 -39 152t-114 53
q-38 0 -65.5 -17.5t-46 -47.5t-27.5 -71t-9 -88z" />
    <glyph glyph-name="e" unicode="e" horiz-adv-x="496" 
d="M32 218q0 121 58.5 191.5t168.5 70.5q52 0 90.5 -16t64 -43.5t38 -64.5t12.5 -78v-17t-1 -18q-14 0 -35.5 0.5t-34.5 0.5q-72 3 -143 3q-20 0 -44 -0.5t-44 -2.5q-11 0 -25 -0.5t-25 -0.5q-1 -8 -1 -16.5v-16.5q0 -41 12 -76t35 -61t56.5 -41t77.5 -15q40 0 81.5 20
t69.5 49q-2 -11 -2.5 -20.5t-2.5 -20.5q-30 -24 -74.5 -42t-90.5 -18q-54 0 -98 18t-76 49t-49.5 73.5t-17.5 92.5zM261 458q-38 0 -65 -18t-44.5 -46t-26.5 -60.5t-11 -61.5q8 0 22.5 -0.5t22.5 -0.5q23 -1 46.5 -1.5t45.5 -0.5q20 0 46.5 0.5t47.5 1.5q11 0 23.5 0.5
t22.5 0.5q0 28 -5 61t-19 60.5t-39.5 46t-66.5 18.5zM443 86q0 2 0.5 3t0.5 3l1 -5h-1z" />
    <glyph glyph-name="f" unicode="f" horiz-adv-x="302" 
d="M284 679q-26 15 -57 15q-24 0 -41 -9t-27.5 -23.5t-15 -34t-4.5 -40.5q0 -9 1 -23t3 -30.5t4 -35t5 -34.5h56q12 0 23 0.5t23 0.5q-1 -5 -1 -8v-8q0 -10 1 -15q-6 0 -14.5 0.5t-13.5 0.5q-17 1 -37.5 1.5t-37.5 0.5q0 -109 0.5 -220t3.5 -221q-9 2 -18.5 3t-19.5 1
q-11 0 -20 -1t-19 -3q7 112 7.5 220.5t0.5 220.5q-11 0 -26.5 -0.5t-27.5 -1.5q-5 0 -9 -0.5t-9 -0.5q1 5 1 15q0 3 -0.5 8t-0.5 8q9 0 15.5 -0.5t15.5 -0.5h41q0 30 6.5 64.5t17.5 68.5t27 63.5t36 49.5q18 17 45 31.5t55 14.5q5 0 15 -2q0 -7 -0.5 -15t-1.5 -15
q-1 -12 -1.5 -23t-0.5 -22z" />
    <glyph glyph-name="g" unicode="g" horiz-adv-x="507" 
d="M50 320q0 41 15 71t41 50t60 29.5t73 9.5q12 0 25 -0.5t27 -1.5q7 -1 14.5 -1t15.5 -1q4 0 8.5 -0.5t7.5 -0.5q16 -2 31.5 -2.5t23.5 -0.5q53 0 76 3q-1 -5 -1 -14q0 -11 1 -16q-8 1 -12.5 1t-12.5 1q-21 2 -42 3t-41 2l-4 -8q30 -18 49 -54t19 -72q0 -75 -49.5 -116.5
t-133.5 -41.5q-5 0 -13 0.5t-14 0.5q-6 1 -13.5 1h-15.5q-20 0 -37.5 -14.5t-17.5 -36.5q0 -29 15.5 -42t49.5 -15q11 -1 28 -1.5t28 -0.5q14 -1 27.5 -1h28.5q89 -2 128.5 -37.5t39.5 -87.5q0 -34 -13.5 -69.5t-42 -65t-73 -48t-106.5 -18.5q-96 0 -151.5 37.5t-55.5 103.5
q0 26 10.5 48t27.5 38.5t38.5 28.5t44.5 19q-38 13 -57.5 34.5t-19.5 48.5q0 16 7.5 29.5t20 24.5t27.5 18t30 10q-52 25 -82 63t-30 92zM410 -118q0 63 -37 90.5t-121 27.5q-77 0 -120.5 -27.5t-43.5 -95.5q0 -36 12 -61.5t32.5 -41t48.5 -23t61 -7.5q32 0 62 8.5
t53.5 25.5t38 43t14.5 61zM355 325q0 65 -31.5 100.5t-83.5 35.5q-57 0 -89 -38.5t-32 -102.5q0 -66 29.5 -104.5t90.5 -38.5q30 0 52 12t36 32.5t21 47.5t7 56z" />
    <glyph glyph-name="h" unicode="h" horiz-adv-x="460" 
d="M52 466q0 34 -0.5 73t-1 77.5t-2 74t-3.5 61.5q10 -2 19.5 -3t20.5 -1t20 1t19 3q-2 -26 -3.5 -60.5t-2.5 -72.5t-1 -76.5v-71.5v-94q34 49 75 76t95 27q27 0 55 -8t50.5 -27.5t37 -52.5t14.5 -84q0 -20 -0.5 -41t-1.5 -44q-1 -24 -1.5 -50t-0.5 -52v-63t2 -62
q-9 2 -18.5 3t-19.5 1t-19 -1t-17 -3q1 19 1.5 38.5t1.5 37.5q2 36 3 71t1 73v62q0 77 -31.5 118t-84.5 41q-73 0 -107.5 -45t-34.5 -126q0 -28 0.5 -63.5t1 -73t2 -72.5t3.5 -61q-10 2 -19 3t-20 1t-20.5 -1t-19.5 -3q2 25 3.5 60t2 73.5t1 78t0.5 74.5v184z" />
    <glyph glyph-name="i" unicode="i" horiz-adv-x="157" 
d="M46 285q0 45 -1.5 93t-6.5 91q11 -2 20 -3t20 -1t20 1t20 3q-5 -43 -6.5 -91t-1.5 -93v-105q0 -45 1.5 -93t6.5 -91q-11 2 -20 3t-20 1t-20 -1t-20 -3q5 43 6.5 91t1.5 93v105zM31 651q0 20 14 33.5t33 13.5t33 -13.5t14 -33.5q0 -19 -14 -32.5t-33 -13.5t-33 13.5
t-14 32.5z" />
    <glyph glyph-name="j" unicode="j" horiz-adv-x="246" 
d="M135 244q0 60 -1.5 120.5t-5.5 104.5q10 -2 19.5 -3t20.5 -1t20 1t19 3q-4 -43 -5.5 -91t-1.5 -93v-105q0 -30 0.5 -64.5t2.5 -69.5q2 -36 3 -70t1 -63q0 -42 -4 -77.5t-27 -68.5q-22 -31 -56.5 -52t-81.5 -23q-2 7 -2.5 11.5t-2.5 10.5q5 -1 4.5 -0.5t4.5 0.5
q31 0 49.5 18t29 46t14 63t3.5 69zM121 651q0 20 13.5 33.5t33.5 13.5q19 0 32.5 -13.5t13.5 -33.5q0 -19 -13.5 -32.5t-32.5 -13.5q-20 0 -33.5 13.5t-13.5 32.5z" />
    <glyph glyph-name="k" unicode="k" horiz-adv-x="472" 
d="M38 466q0 34 -0.5 73t-1 77.5t-2 74t-3.5 61.5q10 -2 19.5 -3t20.5 -1t20 1t19 3q-2 -26 -3.5 -60.5t-2.5 -73t-1 -78v-74.5v-185q0 -24 17 -24q8 0 17 5.5t20 13.5h-1q5 2 6 3l2 2h-1q9 7 30 27t47.5 46.5t55 57t52.5 57.5q7 -2 17.5 -3t19.5 -1q8 0 15.5 0.5t18.5 2.5
q-60 -49 -116 -97.5t-108 -99.5q116 -137 239 -274q-23 3 -45 3q-13 0 -25 -1t-24 -3q-22 28 -49.5 62t-55.5 67t-53.5 61.5t-43.5 47.5q-4 5 -9.5 9t-10.5 4q-15 0 -15 -18v-61q0 -43 1.5 -86t5.5 -86q-10 2 -19 3t-20 1t-20.5 -1t-19.5 -3q2 25 3.5 60t2 73.5t1 78
t0.5 74.5v184zM427 469q-3 -1 -8 -1q4 2 7 5t7 6l3 -9q-2 0 -4.5 -0.5t-4.5 -0.5z" />
    <glyph glyph-name="l" unicode="l" horiz-adv-x="167" 
d="M50 466q0 34 -0.5 73t-1.5 77.5t-2.5 74t-3.5 61.5q11 -2 20 -3t20 -1t20 1t20 3q-3 -26 -4.5 -60.5t-2 -73t-1 -78t-0.5 -74.5v-184q0 -34 0.5 -73t1.5 -77.5t2.5 -74t3.5 -61.5q-11 2 -20 3t-20 1t-20 -1t-20 -3q3 25 4.5 60t2 73.5t1 78t0.5 74.5v184z" />
    <glyph glyph-name="m" unicode="m" horiz-adv-x="777" 
d="M50 285q0 45 -1.5 93t-5.5 91q10 -2 19.5 -3t20.5 -1q7 0 15.5 1t18.5 3q-2 -21 -2 -46.5v-46.5q65 104 158 104q25 0 48.5 -8t43 -22.5t33.5 -34.5t20 -44q29 53 71.5 81t96.5 28q32 0 59.5 -9t47.5 -27.5t31.5 -48t11.5 -70.5q0 -14 -0.5 -29.5t-1.5 -32.5
q-2 -29 -3 -68t-1 -95v-50t2 -53q-17 3 -38 3q-20 0 -38 -3q3 32 6 108t3 205q0 27 -5.5 50t-18.5 40t-34.5 27t-53.5 10q-38 0 -64.5 -14.5t-40.5 -34.5q-8 -12 -13 -23.5t-8 -34.5t-4 -64.5t-1 -114.5q0 -42 2 -76.5t4 -78.5q-11 2 -20.5 3t-19.5 1t-19 -1t-20 -3
q5 55 7 112.5t2 111.5q0 47 -0.5 74.5t-2.5 44t-6 26.5t-11 23q-11 20 -36 34.5t-52 14.5q-68 0 -101.5 -45t-33.5 -126v-86q0 -45 1.5 -93t5.5 -91q-10 2 -19 3t-20 1t-20.5 -1t-19.5 -3q4 43 5.5 91t1.5 93v105z" />
    <glyph glyph-name="n" unicode="n" horiz-adv-x="484" 
d="M373 278q0 77 -31.5 118t-84.5 41q-73 0 -107.5 -45t-34.5 -126v-86q0 -45 1.5 -93t5.5 -91q-10 2 -19 3t-20 1t-20.5 -1t-19.5 -3q4 43 5.5 91t1.5 93v105q0 45 -1.5 93t-5.5 91q10 -2 19.5 -3t20.5 -1q7 0 15.5 1t18.5 3q-2 -21 -2 -46v-46q34 49 75 76t95 27
q27 0 55 -8t50.5 -27.5t37 -52.5t14.5 -84q0 -20 -0.5 -41t-1.5 -44q-1 -24 -1.5 -50t-0.5 -52v-63t2 -62q-9 2 -18.5 3t-19.5 1t-19 -1t-17 -3q1 19 1.5 38.5t1.5 37.5q2 36 3 71t1 73v62v0z" />
    <glyph glyph-name="o" unicode="o" horiz-adv-x="549" 
d="M33 232q0 68 21.5 115t55.5 76.5t77 43t87 13.5q43 0 86.5 -13.5t77.5 -43t55.5 -76.5t21.5 -115t-21.5 -115t-55.5 -76t-77.5 -42.5t-86.5 -13.5q-44 0 -87 13.5t-77 42.5t-55.5 76t-21.5 115zM112 232q0 -44 8 -84.5t26.5 -71.5t49.5 -50t78 -19q46 0 77.5 19t50 50
t26.5 71.5t8 84.5t-8 84.5t-26.5 72t-50 50.5t-77.5 19q-47 0 -78 -19t-49.5 -50.5t-26.5 -72t-8 -84.5z" />
    <glyph glyph-name="p" unicode="p" horiz-adv-x="508" 
d="M51 180q0 34 -0.5 73l-1 78t-2 75t-3.5 63q10 -2 19 -3t20 -1q22 0 40 3q-3 -25 -5 -47t-2 -48l8 -2q8 16 21.5 35t34 35.5t48.5 27.5t66 11t74 -14t64.5 -44t46 -76.5t17.5 -110.5q0 -63 -18.5 -110t-49 -78t-69 -46.5t-77.5 -15.5q-55 0 -94 25t-62 73l-8 -2l-2 -66
q0 -34 0.5 -73t1 -77.5t2 -74t3.5 -61.5q-10 2 -19.5 3t-20.5 1t-20 -1t-19 -3q2 25 3.5 60t2 73.5t1 78t0.5 74.5v165zM417 236q0 63 -13 103.5t-34 64.5t-47 33.5t-51 9.5q-43 0 -72.5 -17.5t-48 -47t-27 -69.5t-8.5 -85q0 -107 39 -161.5t114 -54.5q37 0 65 17.5
t46.5 47.5t27.5 71t9 88z" />
    <glyph glyph-name="q" unicode="q" horiz-adv-x="507" 
d="M456 15q0 -34 0.5 -73t1 -77.5t2 -74t3.5 -61.5q-10 2 -19 3t-20 1t-20.5 -1t-19.5 -3q2 25 3.5 60t2 73.5t1 78t0.5 74.5v78l-8 2q-29 -57 -72 -83.5t-92 -26.5q-37 0 -74 12.5t-67 41.5t-48.5 75.5t-18.5 114.5q0 66 18.5 113t48.5 78t67 45.5t74 14.5
q67 0 105.5 -31.5t55.5 -77.5l9 2q2 25 0 47t-5 48q18 -3 40 -3q11 0 20 1t19 3q-2 -27 -3.5 -62t-2.5 -74t-1 -78.5v-74.5v-165zM391 242q0 40 -8.5 77t-26.5 65.5t-46.5 45.5t-69.5 17q-26 0 -52.5 -9.5t-48 -35t-35.5 -69.5t-14 -112q0 -45 9 -83t26.5 -66t44 -44
t61.5 -16q39 0 69 20t50.5 52.5t30.5 74t10 83.5z" />
    <glyph glyph-name="r" unicode="r" horiz-adv-x="291" 
d="M272 398q-9 5 -22.5 10t-27.5 5q-26 0 -46 -11.5t-34 -31t-21.5 -46t-7.5 -57.5v-109v-74t0.5 -50t2.5 -37q-17 3 -34 3q-10 0 -18 -1t-19 -3q3 38 3 94.5v141.5v33q0 39 -0.5 88.5t-3.5 115.5q10 -2 19 -3t19 -1q17 0 34 3q-3 -31 -3.5 -52.5t-0.5 -41.5l8 -2
q31 54 65.5 81t67.5 27q14 0 26 -4q-4 -14 -4.5 -36t-0.5 -41z" />
    <glyph glyph-name="s" unicode="s" horiz-adv-x="369" 
d="M58 82q6 -11 17 -23t26 -22.5t34 -17.5t41 -7q20 0 38.5 6.5t33 18.5t23 30t8.5 42q0 22 -9 37.5t-24.5 26t-35 18t-40.5 13.5q-23 7 -46 15.5t-42 22.5t-30.5 35.5t-11.5 54.5q0 64 42.5 106t120.5 42q27 0 48 -6.5t39 -13.5q5 -2 9 -4t9 -4q-8 -14 -14 -32.5t-8 -29.5
h-3q-10 24 -34 43t-59 19q-16 0 -32 -5t-29 -16t-21.5 -28t-8.5 -41q0 -25 9.5 -41t25 -26.5t35.5 -17.5t41 -13q23 -6 46 -14t41 -21.5t29.5 -34.5t11.5 -54q0 -28 -12.5 -56t-35.5 -50t-55.5 -35.5t-73.5 -13.5q-43 0 -73.5 9t-50.5 20q5 12 10.5 32.5t6.5 35.5h4z" />
    <glyph glyph-name="t" unicode="t" horiz-adv-x="283" 
d="M157 605q-2 -38 -3.5 -76t-3.5 -73q11 0 41.5 0.5t65.5 2.5v-32q-27 2 -57.5 1.5t-48.5 -0.5q-1 -4 -2 -33t-2.5 -69t-2.5 -84t-1 -77q0 -29 1.5 -57.5t10 -51t26 -36t49.5 -13.5q7 0 19 1.5t22 3.5v-13q-17 -5 -36.5 -9.5t-36.5 -4.5q-61 0 -90.5 32t-29.5 90
q0 23 1 52.5t2 58.5q2 42 2.5 94.5t1.5 115.5q-14 0 -31 0.5t-37 -1.5q1 5 1 8.5v8.5q0 3 -0.5 7t-0.5 7q23 0 39 -0.5t27 -0.5q0 7 -0.5 18t-0.5 20q-1 17 -1.5 36.5t-1.5 39.5zM157 605q0 2 0.5 3t0.5 3l5 -5h-3z" />
    <glyph glyph-name="u" unicode="u" horiz-adv-x="485" 
d="M42 146q0 29 0.5 53t1.5 45q1 19 1 35.5v33.5q0 35 -0.5 74.5t-1.5 81.5q9 -2 19 -3t19 -1t17.5 1t17.5 3q-5 -60 -7 -130.5t-2 -145.5q0 -54 9.5 -82.5t23.5 -43.5q15 -17 37.5 -28.5t53.5 -11.5q45 0 74.5 19.5t43.5 48.5q7 16 11.5 29t6.5 33.5t2.5 55.5t0.5 95v83
t-2 78q9 -2 17.5 -3t19.5 -1t20 1t17 3q-2 -40 -3.5 -77t-2.5 -74t-1 -74.5v-77.5q0 -44 0.5 -86t2.5 -84q-8 2 -17 3t-17 1q-17 0 -33 -3q2 22 1.5 49.5t-0.5 48.5q-32 -54 -75 -82t-91 -28q-77 0 -120.5 42t-43.5 119z" />
    <glyph glyph-name="v" unicode="v" horiz-adv-x="491" 
d="M243 0q-16 0 -29 -4q-2 8 -6 15.5t-6 15.5q-42 110 -85 220t-94 221q19 -3 41 -3q11 0 21 1t20 3q32 -100 70 -199.5t84 -202.5q42 87 77 177t66 177q4 11 8 23.5t8 24.5q8 -2 14.5 -3t14.5 -1h11.5t9.5 2q-7 -17 -11.5 -28.5t-11.5 -26.5q-48 -106 -92.5 -208.5
t-82.5 -207.5q-6 2 -13 3t-14 1zM209 -5q2 0 3 0.5t2 0.5l2 -4l-7 3v0z" />
    <glyph glyph-name="w" unicode="w" horiz-adv-x="794" 
d="M202 -4q-12 40 -31 96.5t-42.5 120.5t-48.5 130t-49 125q18 -3 38 -3q11 0 22 1t21 3q26 -97 59 -194.5t75 -203.5q12 30 29.5 77t36.5 102t37.5 112t33.5 106q12 -3 27 -3q11 0 25 3q23 -90 53 -175.5t62 -174.5l17 -47q13 32 31.5 80t39 102.5t41 110.5t37.5 104
q13 -3 28 -3q5 0 10 0.5t10 1.5q-55 -119 -104 -236t-92 -235h-1q-5 2 -10.5 3t-10.5 1q-14 0 -23 -3q-26 92 -58 185.5t-75 197.5q-14 -32 -32 -78t-37 -98.5t-37 -106.5t-32 -101h-1q-5 2 -11 3t-12 1q-7 0 -13 -1t-11 -3h-2zM199 -5q2 0 3 1q1 -1 1 -2t1 -3l-5 4v0z" />
    <glyph glyph-name="x" unicode="x" horiz-adv-x="517" 
d="M272 282q36 47 71 93t67 94q8 -2 16.5 -3t17.5 -1q5 0 10 0.5t10 1.5q-49 -56 -91.5 -106t-87.5 -105q44 -64 92 -129.5t98 -129.5q-20 3 -39 3q-14 0 -26 -1t-24 -3q-34 52 -70.5 105t-72.5 105q-37 -51 -75 -105t-71 -105q-8 2 -16 3t-16 1h-10t-10 -1q49 60 91.5 114
t87.5 114q-43 60 -87.5 120.5t-91.5 120.5q19 -3 41 -3q28 0 51 4q29 -48 60.5 -94t66.5 -93h8z" />
    <glyph glyph-name="y" unicode="y" horiz-adv-x="487" 
d="M230 -9q-11 29 -28 70.5t-36 87.5t-39 94.5t-38.5 91.5t-33.5 78t-24 55q8 -2 18 -2.5t19 -0.5q11 0 22 1t21 3q27 -85 62 -172t72 -175q4 -8 8.5 -20.5t11.5 -30.5q22 46 43.5 96.5t41.5 101.5t38 101.5t33 97.5q15 -3 30 -3h12.5t11.5 2q-13 -27 -38.5 -82.5
t-57 -125.5t-66.5 -148.5t-66.5 -151.5t-56 -134t-35.5 -96q-15 4 -32 4q-5 0 -11.5 -0.5t-11.5 -1.5q39 65 71.5 129t58.5 127v4z" />
    <glyph glyph-name="z" unicode="z" horiz-adv-x="486" 
d="M26 2q37 45 75.5 94.5t76 99t72 96t63.5 85.5q11 15 24 32t21 28q-8 0 -40.5 -1t-75 -3t-87 -4.5t-75.5 -5.5q1 5 1 10v12q0 6 -0.5 12t-1.5 12q32 -3 93.5 -3.5t153.5 -0.5q43 0 70 0.5t58 3.5v-7q-27 -35 -58.5 -76t-63.5 -83.5t-63.5 -84t-59 -78.5t-49 -66t-34.5 -47
q43 0 79.5 0.5t73 2t76.5 4t92 7.5q-1 -6 -1.5 -12t-0.5 -11q0 -11 3 -23q-15 0 -28 0.5t-29 1.5q-96 3 -191 3q-68 0 -134 -3q-11 -1 -21 -1.5t-19 -0.5v7z" />
    <glyph glyph-name="braceleft" unicode="{" horiz-adv-x="243" 
d="M11 296q36 2 55.5 29.5t19.5 71.5v172q0 65 21.5 89.5t62.5 24.5h54v-28h-28q-29 0 -43.5 -16t-14.5 -70v-166q0 -48 -26 -76.5t-73 -45.5q47 -18 73 -47t26 -77v-166q0 -54 14.5 -70t43.5 -16h28v-28h-54q-41 0 -62.5 24.5t-21.5 89.5v172q0 44 -19.5 71.5t-55.5 29.5
v32z" />
    <glyph glyph-name="bar" unicode="|" horiz-adv-x="144" 
d="M48 751h42v-1005h-42v1005z" />
    <glyph glyph-name="braceright" unicode="}" horiz-adv-x="243" 
d="M231 264q-36 -2 -55.5 -29.5t-19.5 -71.5v-172q0 -65 -22 -89.5t-62 -24.5h-54v28h28q29 0 43.5 16t14.5 70v166q0 48 26 76.5t73 45.5q-47 18 -73 47t-26 77v166q0 54 -14.5 70t-43.5 16h-28v28h54q40 0 62 -24.5t22 -89.5v-172q0 -44 19.5 -71.5t55.5 -29.5v-32z" />
    <glyph glyph-name="asciitilde" unicode="~" horiz-adv-x="520" 
d="M35 229q23 38 48.5 58t68.5 20q29 0 50.5 -7.5t43.5 -17.5q8 -4 16 -7t16 -7q24 -12 45.5 -21t45.5 -9q15 0 28.5 6.5t25.5 16.5t22 23t17 25q6 -9 12 -16.5t11 -15.5q-10 -15 -22 -29.5t-26 -26t-31.5 -18.5t-37.5 -7q-29 0 -55.5 10t-58.5 26q-27 14 -51.5 23.5
t-43.5 9.5q-22 0 -38.5 -6.5t-28.5 -17t-20.5 -22.5t-14.5 -24z" />
    <glyph glyph-name="Euro" unicode="&#x20ac;" horiz-adv-x="577" 
d="M369 672q42 0 89 -14.5t82 -33.5q-6 -17 -11 -35t-10 -38q-4 0 -5 -0.5t-4 -0.5q-12 21 -29 37.5t-36.5 28t-39.5 17t-39 5.5q-68 0 -119 -58t-68 -179h174q24 0 50.5 0.5t48.5 3.5q-3 -10 -6 -23t-5 -22q-20 3 -45.5 4t-48.5 1h-172q-1 -13 -1.5 -29t-0.5 -31v-13h150
q24 0 50.5 0.5t48.5 3.5q-3 -10 -6 -22.5t-5 -21.5q-21 3 -46.5 4t-48.5 1h-141q6 -56 23.5 -100t42.5 -74t57 -46t67 -16q40 0 81 19.5t76 55.5q2 -4 3 -4q-3 -13 -5 -27.5t-4 -28.5q-12 -11 -31 -20t-41.5 -15.5t-47 -10t-46.5 -3.5q-102 0 -171.5 70t-86.5 200
q-24 -1 -40.5 -1.5t-29.5 -2.5q8 23 11 44q7 -2 21.5 -2.5t34.5 -1.5v26q0 11 0.5 23.5t1.5 22.5q-25 -1 -41.5 -1.5t-27.5 -2.5q8 22 11 45q9 -2 24.5 -2.5t38.5 -1.5q12 57 37 106.5t60.5 86t80 57t95.5 20.5zM544 622q-2 0 -4 2l2 4l2 -6v0z" />
    <glyph glyph-name="quotesinglbase" unicode="&#x201a;" 
d="M94 69q3 12 12 23.5t28 11.5q11 0 21.5 -7t10.5 -22q0 -11 -3.5 -19.5t-8.5 -16.5v2q-1 -1 -0.5 -1.5t-0.5 -1.5q-31 -53 -62.5 -107t-63.5 -107q-6 4 -9 5z" />
    <glyph glyph-name="florin" unicode="&#x192;" horiz-adv-x="497" 
d="M43 -129l22 -10t23 -5q22 0 36 9t23 25.5t15 39.5t11 52l65 382q-29 0 -57.5 0.5t-49.5 -1.5q2 7 3.5 15.5t2.5 17.5q19 -2 48 -3t58 -1q3 13 6.5 27.5t6.5 27.5q9 36 25.5 75.5t39.5 72.5t53.5 55t68.5 22q5 0 13 -0.5t14 -2.5q-4 -15 -6.5 -35.5t-3.5 -41.5
q-3 -1 -5 -2q-9 11 -25 20t-30 9q-23 0 -41 -15t-26 -61l-25 -151q21 0 43.5 1t39.5 2q8 1 14.5 1.5t12.5 0.5q-2 -8 -4 -17t-3 -17q-21 2 -49.5 1.5t-58.5 -0.5l-41 -226q-19 -108 -46 -174t-57.5 -102.5t-64 -49t-66.5 -13.5q6 21 9 38t3 34h3z" />
    <glyph glyph-name="quotedblbase" unicode="&#x201e;" horiz-adv-x="377" 
d="M281 69q3 12 12 23.5t28 11.5q11 0 21.5 -7t10.5 -22q0 -11 -3.5 -19.5t-8.5 -16.5v2q-1 -1 -0.5 -1.5t-0.5 -1.5q-30 -53 -62 -107t-64 -107q-6 4 -9 5zM107 69q3 12 12 23.5t27 11.5q11 0 22 -7t11 -22q0 -11 -3.5 -19.5t-8.5 -16.5v2q-1 -1 -0.5 -1.5t-0.5 -1.5
q-31 -53 -63 -107t-63 -107q-6 4 -9 5z" />
    <glyph glyph-name="ellipsis" unicode="&#x2026;" horiz-adv-x="862" 
d="M40 41q0 21 16 36.5t37 15.5q22 0 37.5 -15.5t15.5 -36.5q0 -22 -15.5 -37.5t-37.5 -15.5q-21 0 -37 15.5t-16 37.5zM716 41q0 21 15.5 36.5t37.5 15.5q21 0 37 -15.5t16 -36.5q0 -22 -16 -37.5t-37 -15.5q-22 0 -37.5 15.5t-15.5 37.5zM378 41q0 21 16 36.5t37 15.5
t37 -15.5t16 -36.5q0 -22 -16 -37.5t-37 -15.5t-37 15.5t-16 37.5z" />
    <glyph glyph-name="dagger" unicode="&#x2020;" horiz-adv-x="473" 
d="M207 450v61.5t-0.5 65.5t-2 60t-4.5 46q19 -3 36 -3q10 0 18 0.5t18 2.5q-3 -18 -4.5 -47t-2 -61.5t-0.5 -66.5v-63q45 0 88.5 1t86.5 6q-3 -15 -3 -31q0 -7 0.5 -15t2.5 -15q-43 5 -86.5 6t-88.5 1q0 -70 1.5 -146.5t3.5 -147.5q2 -27 2.5 -54.5t1.5 -53.5q-10 2 -19 3
t-19 1t-19 -1t-19 -3q1 26 1.5 54t2.5 54q2 73 3.5 147t1.5 147q-45 0 -88.5 -1t-86.5 -6q2 7 2.5 15t0.5 15q0 16 -3 31q43 -5 84.5 -6t85.5 -1z" />
    <glyph glyph-name="daggerdbl" unicode="&#x2021;" horiz-adv-x="476" 
d="M212 340q0 13 -0.5 25t-0.5 26q-1 13 -1 28v28q-46 0 -89.5 -1t-86.5 -6q2 7 2.5 15.5t0.5 15.5q0 16 -3 31q43 -5 86 -6t89 -1v33.5t-0.5 40t-2.5 50.5t-5 64q18 -3 37 -3t37 3q-3 -36 -5 -64t-2.5 -50.5t-0.5 -40v-33.5q45 0 88.5 1t86.5 6q-3 -15 -3 -31
q0 -7 0.5 -15.5t2.5 -15.5q-43 5 -86 6t-90 1q0 -10 -0.5 -27.5t-0.5 -28.5q-1 -14 -1 -26v-25v-26t1 -26q0 -13 0.5 -27.5t0.5 -28.5q46 0 89.5 1t86.5 6q-3 -15 -3 -31q0 -7 0.5 -15t2.5 -15q-43 5 -86.5 6t-88.5 1v-34t0.5 -40.5t2.5 -50t5 -63.5q-18 3 -37 3t-37 -3
q7 71 7.5 113.5t0.5 74.5q-45 0 -88.5 -1t-86.5 -6q2 7 2.5 15t0.5 15q0 16 -3 31q43 -5 86 -6t90 -1v28.5t1 27.5q0 13 0.5 26t0.5 26z" />
    <glyph glyph-name="circumflex" unicode="&#x2c6;" horiz-adv-x="354" 
d="M176 676q-30 -27 -61.5 -54.5t-61.5 -54.5h-25q31 42 58 80t59 79h62q31 -40 59.5 -79t58.5 -80h-25z" />
    <glyph glyph-name="perthousand" unicode="&#x2030;" horiz-adv-x="980" 
d="M364 141q0 45 13 75.5t33 48.5t44 25.5t47 7.5t47 -7.5t44 -25.5t33 -48.5t13 -75.5t-13 -75.5t-33 -48.5t-44 -25.5t-47 -7.5t-47 7.5t-44 25.5t-33 48.5t-13 75.5zM29 514q0 45 13 75.5t33 49t44 26t47 7.5t47 -7.5t44 -26t33 -49t13 -75.5t-13 -75t-33 -48.5t-44 -26
t-47 -7.5t-47 7.5t-44 26t-33 48.5t-13 75zM693 141q0 45 13 75.5t33 48.5t44 25.5t47 7.5t47 -7.5t44 -25.5t33 -48.5t13 -75.5t-13 -75.5t-33 -48.5t-44 -25.5t-47 -7.5t-47 7.5t-44 25.5t-33 48.5t-13 75.5zM423 141q0 -31 3.5 -57.5t12.5 -45.5t24 -29.5t38 -10.5
t38 10.5t24 29.5t12.5 45.5t3.5 57.5t-3.5 57.5t-12.5 45.5t-24 29.5t-38 10.5t-38 -10.5t-24 -29.5t-12.5 -45.5t-3.5 -57.5zM752 141q0 -31 3.5 -57.5t12.5 -45.5t24 -29.5t38 -10.5t38 10.5t24 29.5t12.5 45.5t3.5 57.5t-3.5 57.5t-12.5 45.5t-24 29.5t-38 10.5
t-38 -10.5t-24 -29.5t-12.5 -45.5t-3.5 -57.5zM88 514q0 -31 3.5 -57.5t12.5 -45.5t24 -29.5t38 -10.5t38 10.5t24 29.5t12.5 45.5t3.5 57.5t-3.5 57.5t-12.5 45.5t-24 29.5t-38 10.5t-38 -10.5t-24 -29.5t-12.5 -45.5t-3.5 -57.5zM508 693q10 -3 23 -3q10 0 14 1
q-98 -185 -193 -365t-192 -364q-5 3 -11 3.5t-11 0.5q-9 0 -14 -2z" />
    <glyph glyph-name="Scaron" unicode="&#x160;" horiz-adv-x="460" 
d="M49 120q9 -18 23 -37t34.5 -34.5t47 -25t60.5 -9.5q35 0 62.5 12t47 32.5t30 48t10.5 59.5q0 34 -12.5 58t-33 41t-47 29.5t-55.5 24.5q-31 12 -62 26.5t-55.5 36t-39.5 52.5t-15 77q0 41 15 75.5t43 59t68 38.5t89 14q46 0 80.5 -10.5t63.5 -33.5q-9 -17 -14 -35
t-11 -44h-4q-6 15 -15.5 31.5t-24 31t-35.5 24t-50 9.5q-30 0 -55 -9.5t-43 -27t-28 -41.5t-10 -53q0 -36 13 -60.5t34.5 -42t49 -29.5t57.5 -24q31 -12 60.5 -25.5t53 -33.5t38 -49t14.5 -71q0 -45 -16.5 -85.5t-48 -71t-76.5 -48.5t-103 -18q-59 0 -97 16.5t-64 37.5
q8 20 11.5 39.5t6.5 44.5h3zM364 901h25q-31 -42 -58.5 -80t-58.5 -79h-63q-31 41 -58.5 79t-58.5 80h25l124 -109z" />
    <glyph glyph-name="guilsinglleft" unicode="&#x2039;" horiz-adv-x="197" 
d="M132 411q12 -15 28 -21l-109 -159q26 -41 52.5 -81.5t52.5 -82.5q-8 -2 -17 -7.5t-14 -12.5q-30 48 -58 91.5t-57 91.5z" />
    <glyph glyph-name="OE" unicode="&#x152;" horiz-adv-x="1006" 
d="M725 236q0 -75 3 -150q1 -12 1.5 -26.5t0.5 -27.5q105 0 163 3t86 7q-3 -12 -3 -23t3 -23q-43 2 -82 3t-82 1q-42 0 -82.5 -1.5t-84.5 -3.5q2 23 3 50t1 56q-19 -19 -43.5 -40t-58 -38.5t-76.5 -29t-98 -11.5q-71 0 -134 24t-109.5 68.5t-73.5 108.5t-27 145
q0 90 27.5 159t75.5 116t114 71t144 24q63 0 108.5 -14t76 -33.5t49 -40.5t27.5 -34q2 35 2 60.5t-2 48.5q43 -2 81 -3.5t79 -1.5q39 0 79 1t79 3q-2 -7 -2.5 -12.5t-0.5 -13.5q0 -14 3 -24q-14 3 -30.5 5t-42.5 4t-66.5 3t-102.5 1q0 -11 -0.5 -24t-1.5 -24q-3 -68 -3 -134
v-89q55 0 92.5 0.5t62 1.5t40 2t27.5 2h4q-3 -11 -3 -22q0 -12 3 -22h-5q-12 1 -27.5 2t-40 2t-61.5 1.5t-92 0.5v-108zM122 340q0 -86 21.5 -148t58 -103t85.5 -60.5t104 -19.5q62 0 112 24t85 67.5t53.5 104.5t18.5 135q0 90 -19.5 153t-54 102.5t-81.5 57.5t-102 18
q-59 0 -110.5 -19.5t-89.5 -60.5t-59.5 -103.5t-21.5 -147.5z" />
    <glyph glyph-name="quoteleft" unicode="&#x2018;" 
d="M82 450q-3 -11 -12 -22.5t-28 -11.5q-11 0 -21.5 7t-10.5 22q0 11 3.5 20t8.5 17v-2q1 1 0.5 1.5t0.5 1.5q31 53 62.5 106.5t63.5 106.5q3 -1 5.5 -2t4.5 -2z" />
    <glyph glyph-name="quoteright" unicode="&#x2019;" 
d="M94 662q3 13 12 24.5t28 11.5q11 0 21.5 -7t10.5 -22q0 -11 -3.5 -20t-8.5 -17v2q-1 -1 -0.5 -1.5t-0.5 -1.5q-31 -53 -62.5 -106.5t-63.5 -106.5q-2 1 -4.5 2t-4.5 2z" />
    <glyph glyph-name="quotedblleft" unicode="&#x201c;" horiz-adv-x="376" 
d="M270 450q-3 -11 -12 -22.5t-27 -11.5q-11 0 -22 7t-11 22q0 11 3.5 20t8.5 17v-2q1 1 0.5 1.5t0.5 1.5q31 53 63 106.5t63 106.5q3 -1 5.5 -2t4.5 -2zM96 450q-3 -11 -12 -22.5t-28 -11.5q-11 0 -21.5 7t-10.5 22q0 11 3.5 20t8.5 17v-2q1 1 0.5 1.5t0.5 1.5
q30 53 62 106.5t64 106.5q3 -1 5.5 -2t4.5 -2z" />
    <glyph glyph-name="quotedblright" unicode="&#x201d;" horiz-adv-x="377" 
d="M281 662q3 13 12 24.5t28 11.5q11 0 21.5 -7t10.5 -22q0 -11 -3.5 -20t-8.5 -17v2q-1 -1 -0.5 -1.5t-0.5 -1.5q-30 -53 -62 -106.5t-64 -106.5q-2 1 -4.5 2t-4.5 2zM107 662q3 13 12 24.5t27 11.5q11 0 22 -7t11 -22q0 -11 -3.5 -20t-8.5 -17v2q-1 -1 -0.5 -1.5
t-0.5 -1.5q-31 -53 -63 -106.5t-63 -106.5q-2 1 -4.5 2t-4.5 2z" />
    <glyph glyph-name="bullet" unicode="&#x2022;" horiz-adv-x="400" 
d="M33 340q0 34 13 64.5t36 53.5t53 36t65 13q34 0 64.5 -13t53.5 -36t36 -53.5t13 -64.5q0 -35 -13 -65.5t-36 -53t-53.5 -36t-64.5 -13.5q-35 0 -65 13.5t-53 36t-36 53t-13 65.5z" />
    <glyph glyph-name="endash" unicode="&#x2013;" horiz-adv-x="587" 
d="M44 248h498v-38h-498v38z" />
    <glyph glyph-name="emdash" unicode="&#x2014;" horiz-adv-x="1086" 
d="M41 248h1004v-38h-1004v38z" />
    <glyph glyph-name="tilde" unicode="&#x2dc;" horiz-adv-x="393" 
d="M35 592q3 17 10.5 34t19.5 30.5t29 22t40 8.5q17 0 31.5 -4.5t40.5 -18.5q30 -14 43 -19t26 -5q21 0 37.5 17.5t24.5 33.5h19q-3 -13 -9.5 -30t-18.5 -32.5t-30.5 -26t-45.5 -10.5q-28 0 -71 23q-29 15 -42.5 19.5t-25.5 4.5q-25 0 -37 -10.5t-21 -36.5h-20z" />
    <glyph glyph-name="trademark" unicode="&#x2122;" horiz-adv-x="870" 
d="M654 460q32 57 64 115t63 116h2l11 -124q3 -33 7.5 -70.5t9.5 -75t10 -74t10 -66.5q-11 3 -23 3t-24 -3q-2 39 -5 89t-10 107l-16 124q-11 -19 -26 -45t-26 -46q-15 -27 -31.5 -58t-32.5 -61.5t-29 -58t-22 -46.5l-2 -2q-20 46 -37 79t-34 64l-33 63l-56 106l-17 -127
q-6 -47 -10 -93t-5 -94q-5 2 -9.5 2h-8.5q-7 0 -17 -2q13 62 22.5 128t20.5 139q5 35 9.5 71t9.5 71h1q26 -58 56 -113.5t64 -115.5l56 -101zM157 662q-30 0 -63 -1t-65 -3q2 5 2 7v7q0 2 -1 5.5t-2 6.5q40 -2 75.5 -3t74.5 -1q38 0 75 1t75 3q-2 -8 -2 -12v-7t2 -7
q-33 2 -64.5 3t-63.5 1v-148q0 -90 3 -180q1 -15 1 -27t1 -26q-14 3 -27 3t-26 -3v6q2 39 3.5 91.5t1.5 127.5v156z" />
    <glyph glyph-name="scaron" unicode="&#x161;" horiz-adv-x="370" 
d="M57 82q6 -11 17 -23t26 -22.5t34 -17.5t41 -7q20 0 38.5 6.5t33 18.5t23 30t8.5 42q0 22 -9 37.5t-24.5 26t-35 18t-40.5 13.5q-23 7 -46 15.5t-42 22.5t-30.5 35.5t-11.5 54.5q0 64 42.5 106t120.5 42q27 0 48 -6.5t39 -13.5q5 -2 9 -4t9 -4q-8 -14 -14 -32.5t-8 -29.5
h-3q-10 24 -34 43t-59 19q-16 0 -32 -5t-29 -16t-21.5 -28t-8.5 -41q0 -25 9.5 -41t25 -26.5t35.5 -17.5t41 -13q23 -6 46 -14t41 -21.5t29.5 -34.5t11.5 -54q0 -28 -12.5 -56t-35.5 -50t-55.5 -35.5t-73.5 -13.5q-43 0 -73.5 9t-50.5 20q5 12 10.5 32.5t6.5 35.5h4z
M309 726h25q-31 -41 -58.5 -79t-59.5 -80h-62q-31 42 -59 80t-58 79h25l124 -108z" />
    <glyph glyph-name="guilsinglright" unicode="&#x203a;" horiz-adv-x="195" 
d="M39 394q8 2 17 7.5t14 12.5q30 -48 58 -92t57 -92q-31 -46 -61 -90t-61 -90q-12 15 -28 21l109 158z" />
    <glyph glyph-name="oe" unicode="&#x153;" horiz-adv-x="897" 
d="M657 480q52 0 90.5 -16t64 -43.5t38 -64.5t12.5 -78v-17t-1 -18q-14 0 -35.5 0.5t-34.5 0.5q-72 3 -143 3q-20 0 -44 -0.5t-44 -2.5q-12 0 -25.5 -0.5t-24.5 -0.5q-1 -8 -1 -16.5v-16.5q0 -41 12 -76t35 -61t56.5 -41t76.5 -15q41 0 82.5 20t69.5 49q-2 -11 -2.5 -20.5
t-2.5 -20.5q-30 -24 -74.5 -42t-90.5 -18q-63 0 -113 24.5t-84 68.5q-35 -50 -88.5 -71.5t-108.5 -21.5q-44 0 -87 13.5t-77.5 42.5t-56 76t-21.5 115t21.5 115t56 76.5t77.5 43t87 13.5q54 0 107 -22t88 -70q31 45 77.5 68.5t107.5 23.5zM440 232q0 44 -8 84.5t-27 72
t-50.5 50.5t-77.5 19q-47 0 -78 -19t-50 -50.5t-27 -72t-8 -84.5t8 -84.5t27 -71.5t50 -50t78 -19q46 0 77.5 19t50.5 50t27 71.5t8 84.5zM659 458q-38 0 -65 -18t-44.5 -46t-26.5 -60.5t-11 -61.5q8 0 22 -0.5t23 -0.5q23 -1 46 -1.5t46 -0.5q20 0 46.5 0.5t47.5 1.5
q11 0 23.5 0.5t22.5 0.5q0 28 -5 61t-19 60.5t-39.5 46t-66.5 18.5zM841 86q0 2 0.5 3t0.5 3l1 -5h-1z" />
    <glyph glyph-name="Ydieresis" unicode="&#x178;" horiz-adv-x="583" 
d="M254 281q-10 17 -28 48.5t-41 70t-48 81t-48.5 81.5t-43 71t-31.5 50q10 -2 22.5 -2.5t23.5 -0.5q14 0 27 1t26 3q45 -88 93.5 -176t101.5 -179q25 38 50.5 82t51 90t49 92.5t44.5 90.5q8 -2 17.5 -3t19.5 -1h14.5t13.5 2q-46 -71 -83 -128.5t-66 -105t-51 -87t-39 -72.5
q0 -36 0.5 -77t1 -80.5t2 -75t3.5 -60.5q-12 2 -22.5 3t-21.5 1q-22 0 -44 -3q5 54 6 128t1 153zM155 816q0 19 13.5 32.5t33.5 13.5q19 0 32.5 -13.5t13.5 -32.5q0 -20 -13.5 -33.5t-32.5 -13.5q-20 0 -33.5 13.5t-13.5 33.5zM355 816q0 19 13.5 32.5t33.5 13.5
q19 0 32.5 -13.5t13.5 -32.5q0 -20 -13.5 -33.5t-32.5 -13.5q-20 0 -33.5 13.5t-13.5 33.5z" />
    <glyph glyph-name="exclamdown" unicode="&#xa1;" horiz-adv-x="175" 
d="M91 294q2 -28 5 -55.5t5 -57.5q5 -64 10.5 -126.5t10 -113.5t7 -85.5t2.5 -41.5q0 -24 -14 -34t-31 -10t-31 10t-14 34q0 7 2.5 41.5t7 85.5t10 113.5t10.5 126.5q2 29 5 57.5t5 55.5h10zM33 427q0 22 16 37.5t37 15.5t37 -15.5t16 -37.5q0 -21 -16 -37t-37 -16t-37 16
t-16 37z" />
    <glyph glyph-name="cent" unicode="&#xa2;" horiz-adv-x="480" 
d="M34 232q0 58 18 101.5t48.5 73.5t70 47.5t82.5 22.5v13q0 19 -1 42.5t-3 46.5q5 -1 10 -1.5t10 -0.5q6 0 11 0.5t10 1.5q-2 -22 -3 -45t-1 -43v-11q54 -1 96.5 -12.5t62.5 -28.5q-13 -25 -20 -61l-2 -2q-8 13 -20.5 27.5t-29.5 26.5t-39 20t-48 8v-441q44 0 87 19.5
t71 48.5q-2 -10 -2.5 -20.5t-1.5 -20.5q-28 -23 -69 -39t-85 -18v-13q0 -20 1 -46.5t3 -49.5q-5 1 -10 1.5t-11 0.5q-5 0 -10 -0.5t-10 -1.5q2 22 3 48.5t1 48.5v12q-41 4 -80.5 19.5t-70 45.5t-49.5 74.5t-19 105.5zM253 454q-74 -17 -107 -76.5t-33 -144.5
q0 -91 35.5 -144.5t104.5 -67.5v433zM444 85q1 2 1 3.5t1 3.5l1 -5h-1z" />
    <glyph glyph-name="sterling" unicode="&#xa3;" horiz-adv-x="507" 
d="M26 50q45 0 73 12.5t44 35t21.5 55t5.5 71.5q0 26 -2.5 52t-5.5 49q0 2 -0.5 5.5t-0.5 5.5q-23 -1 -49 -1.5t-49 -0.5q1 5 1 9v9q0 4 0.5 6.5t-0.5 7.5q16 -2 40 -2.5t53 -0.5q-6 45 -6 74q0 69 18.5 114t48 72t64.5 38t68 11q35 0 70.5 -12.5t54.5 -35.5
q-8 -9 -16.5 -21t-16.5 -26q-9 34 -34.5 50.5t-57.5 16.5q-29 0 -52 -11t-39.5 -30t-25.5 -45t-9 -56q0 -31 1 -56.5t3 -48.5q1 -8 1 -17.5t1 -16.5q66 0 117 3q9 1 18.5 0.5t18.5 0.5q-1 -5 -1 -15v-9t1 -8q-2 0 -2 -0.5t-2 -0.5q-36 1 -72.5 1.5t-74.5 0.5
q1 -11 1.5 -25.5t0.5 -26.5q0 -38 -9 -72.5t-24 -64t-35 -53.5t-41 -40q33 -1 70 -0.5t74.5 1.5t74 2t68.5 3q16 1 32 1t30 1q-1 -8 -1.5 -17.5t-0.5 -17.5q0 -9 0.5 -16.5t1.5 -15.5q-14 0 -26 0.5t-26 1.5q-90 3 -180 3q-87 0 -174 -3q-14 -1 -25.5 -1.5t-25.5 -0.5
q1 6 1 12v15v13.5t-1 14.5h8zM442 577q0 -1 1 -2t2 -1.5t2 -1.5l-8 -1z" />
    <glyph glyph-name="currency" unicode="&#xa4;" horiz-adv-x="574" 
d="M500 571l28 -28l-54 -56q28 -32 44 -73t16 -86q0 -44 -15.5 -84.5t-42.5 -74.5l52 -52q-8 -8 -14 -15.5t-14 -15.5l-55 54q-33 -29 -73 -44t-85 -15t-86 15.5t-73 44.5q-14 -13 -28 -27l-28 -28q-8 8 -14 15.5t-14 15.5l53 54q-26 33 -41.5 73t-15.5 84t16 84t42 73
q-13 14 -27.5 28.5t-27.5 28.5l29 29l56 -56q33 28 73.5 43.5t85.5 15.5t85.5 -15t72.5 -43zM491 328q0 43 -15.5 81t-43 66.5t-65 45t-80.5 16.5q-44 0 -81 -16.5t-64.5 -45t-43 -66.5t-15.5 -81q0 -44 15.5 -82t43 -66t64.5 -44.5t81 -16.5q43 0 80.5 16.5t65 44.5t43 66
t15.5 82z" />
    <glyph glyph-name="yen" unicode="&#xa5;" horiz-adv-x="549" 
d="M231 336q-26 0 -60 -0.5t-60 -1.5q-14 0 -26 -0.5t-26 -0.5q1 4 1 8v8q0 11 -1 16q42 -1 84 -1.5t83 -0.5q-18 29 -38 60.5t-39 60.5q-29 48 -61.5 99.5t-64.5 99.5q21 -3 43 -3q12 0 25.5 1t24.5 3q9 -20 29 -56t44.5 -78t51 -86.5t48.5 -80.5q49 75 96 151.5t86 149.5
q8 -2 16 -3t16 -1q5 0 10.5 0.5t11.5 1.5q-40 -53 -85.5 -121t-99.5 -148q-7 -11 -16 -25t-17 -25q42 0 85 0.5t84 1.5q-1 -4 -1 -8v-8q0 -11 1 -16q-11 0 -27 0.5t-26 0.5q-29 1 -61 1.5t-62 0.5v-99h88t88 1q-1 -4 -1 -8v-8q0 -11 1 -16q-45 2 -88 3t-88 1q0 -57 1 -110.5
t5 -102.5q-20 3 -40 3q-22 0 -41 -3q4 54 5 106.5t1 106.5q-42 0 -85.5 -1t-86.5 -3q1 4 1 8v8q0 11 -1 16q44 -1 86.5 -1h85.5v99z" />
    <glyph glyph-name="brokenbar" unicode="&#xa6;" horiz-adv-x="130" 
d="M48 167h42v-345h-42v345zM48 675h42v-345h-42v345z" />
    <glyph glyph-name="section" unicode="&#xa7;" horiz-adv-x="437" 
d="M346 586q-10 33 -39 59t-73 26q-22 0 -43 -7.5t-37.5 -21.5t-27 -33.5t-10.5 -44.5q0 -27 12 -47t32 -35t44.5 -26.5t50.5 -21.5q27 -11 54.5 -23t49 -29.5t35.5 -41t14 -56.5q0 -21 -6 -40.5t-15.5 -36.5t-20 -31t-19.5 -24q18 -15 28.5 -36.5t10.5 -53.5
q0 -36 -13.5 -70.5t-40 -61.5t-65 -43.5t-89.5 -16.5q-18 0 -37 3.5t-37 9t-34.5 13t-28.5 15.5q5 17 8 39.5t3 39.5h3q5 -12 16 -28t29.5 -30.5t44.5 -24t62 -9.5q28 0 53 11t43.5 28.5t29.5 39.5t11 45q0 26 -12 45t-32 33.5t-45.5 25.5t-52.5 21q-31 12 -61.5 25.5
t-55 32.5t-40 46t-15.5 65q0 23 7.5 43t19 35.5t24 27.5t23.5 18q-1 1 -3.5 4.5t-3.5 4.5v-1q-11 17 -17.5 34t-6.5 55q0 30 11 59t33 51.5t54.5 36.5t76.5 14q48 0 78.5 -17.5t49.5 -39.5q-8 -10 -16 -25t-11 -30h-3zM370 239q0 20 -4.5 34.5t-15 26.5t-28.5 23t-44 23
q-50 22 -79.5 36.5t-47 23.5t-25.5 15t-15 11q-14 -13 -28.5 -35t-14.5 -48q0 -20 6 -36t19.5 -29.5t34.5 -26t51 -25.5q36 -15 62.5 -26.5t45 -20.5t31 -16t21.5 -13q11 17 21 36t10 47z" />
    <glyph glyph-name="dieresis" unicode="&#xa8;" horiz-adv-x="376" 
d="M241 641q0 20 13.5 33.5t32.5 13.5q20 0 33.5 -13.5t13.5 -33.5q0 -19 -13.5 -33t-33.5 -14q-19 0 -32.5 14t-13.5 33zM41 641q0 20 13.5 33.5t33.5 13.5q19 0 32.5 -13.5t13.5 -33.5q0 -19 -13.5 -33t-32.5 -14q-20 0 -33.5 14t-13.5 33z" />
    <glyph glyph-name="copyright" unicode="&#xa9;" horiz-adv-x="775" 
d="M29 340q0 74 28 139.5t76.5 114t114 76.5t139.5 28t139.5 -28t114 -76.5t76.5 -114t28 -139.5t-28 -139.5t-76.5 -114t-114 -76.5t-139.5 -28t-139.5 28t-114 76.5t-76.5 114t-28 139.5zM713 340q0 68 -25 128.5t-69 105.5t-103.5 71t-128.5 26t-128.5 -26t-103.5 -71
t-69 -105.5t-25 -128.5q0 -69 25 -129t69 -105t103.5 -71t128.5 -26t128.5 26t103.5 71t69 105t25 129zM168 338q0 59 19 103t52 73.5t77.5 44.5t95.5 15q48 0 82 -6.5t55 -18.5q-10 -21 -12 -46l1 -1q-7 6 -17.5 15.5t-25.5 18t-35 14.5t-45 6q-36 0 -70.5 -10t-61 -34.5
t-42.5 -67t-16 -107.5q0 -45 12.5 -82.5t36.5 -65.5t58.5 -43.5t79.5 -15.5q21 0 41 5t37.5 12.5t32 16.5t24.5 18q-2 -8 -2.5 -16t-0.5 -15q-20 -12 -57.5 -25.5t-85.5 -13.5q-51 0 -94 16t-74 45.5t-48 71t-17 93.5zM550 191l5 -7q-4 0 -5 1l-3 -3z" />
    <glyph glyph-name="ordfeminine" unicode="&#xaa;" horiz-adv-x="341" 
d="M66 643q20 11 43.5 20t62.5 9q16 0 34 -3.5t33 -14t25 -28.5t10 -46q0 -20 -1 -44.5t-2 -46.5q-1 -17 -1.5 -32t-0.5 -25q0 -23 9.5 -31t18.5 -8q4 0 7 1t7 3v-9q-7 -4 -18 -7t-25 -3q-18 0 -27.5 15t-11.5 35q-26 -24 -51 -37t-56 -13q-15 0 -31 3.5t-28.5 11.5
t-21 21.5t-8.5 33.5q0 34 19.5 51.5t76.5 28.5q35 6 54.5 10.5t29.5 8.5t12 9t2 14q0 26 -6 42.5t-16.5 25.5t-24.5 12t-30 3q-32 0 -52 -13.5t-28 -26.5h-4v30zM227 543q-11 -5 -25 -8.5t-28 -5.5q-16 -3 -31.5 -7t-28 -12t-20.5 -21.5t-8 -34.5q0 -28 17.5 -42.5
t43.5 -14.5t46.5 14.5t33.5 28.5v103z" />
    <glyph glyph-name="guillemotleft" unicode="&#xab;" horiz-adv-x="361" 
d="M144 411q12 -15 28 -21l-110 -159q26 -41 53 -81.5t53 -82.5q-8 -2 -17 -7.5t-14 -12.5q-30 48 -58 91.5t-57 91.5zM291 411q12 -15 28 -21l-109 -159q26 -41 52.5 -81.5t52.5 -82.5q-8 -2 -17 -7.5t-14 -12.5q-30 48 -57.5 91.5t-57.5 91.5z" />
    <glyph glyph-name="logicalnot" unicode="&#xac;" horiz-adv-x="552" 
d="M464 329h-461v42h504v-261h-43v219z" />
    <glyph glyph-name="minus" unicode="&#x2212;" horiz-adv-x="593" 
d="M44 273h504v-43h-504v43z" />
    <glyph glyph-name="registered" unicode="&#xae;" horiz-adv-x="775" 
d="M29 340q0 74 28 139.5t76.5 114t114 76.5t139.5 28t139.5 -28t114 -76.5t76.5 -114t28 -139.5t-28 -139.5t-76.5 -114t-114 -76.5t-139.5 -28t-139.5 28t-114 76.5t-76.5 114t-28 139.5zM61 340q0 -69 25 -129t69 -105t103.5 -71t128.5 -26t128.5 26t103.5 71t69 105
t25 129q0 68 -25 128.5t-69 105.5t-103.5 71t-128.5 26t-128.5 -26t-103.5 -71t-69 -105.5t-25 -128.5zM257 435q0 32 -2 68t-4 63q17 -2 37.5 -3t39.5 -1q10 0 20 0.5t21 1.5l20 2t21 1q51 0 87 -23.5t36 -72.5q0 -30 -15 -52.5t-37 -37.5t-47 -23t-45 -9l27.5 -35
t30.5 -39q32 -43 65 -84.5t57 -63.5q-17 3 -29 3q-21 0 -37 -4q-38 54 -78.5 107.5t-85.5 108.5h-39v-76q0 -33 1.5 -70t3.5 -69q-8 2 -13.5 2.5t-13.5 0.5q-15 0 -27 -3q1 8 0.5 11t0.5 11q2 29 3.5 56.5t1.5 56.5v173zM300 361q6 -2 19 -3.5t28 -1.5q27 0 51 6t42.5 19
t29 33.5t10.5 49.5q0 42 -27.5 65.5t-71.5 23.5q-18 0 -37.5 -1.5t-37.5 -4.5q-2 -24 -4 -48.5t-2 -51.5v-86zM580 125l-6 -5v3q-2 1 -5 4q3 0 11 -2z" />
    <glyph glyph-name="macron" unicode="&#xaf;" horiz-adv-x="360" 
d="M46 655h267v-42h-267v42z" />
    <glyph glyph-name="degree" unicode="&#xb0;" horiz-adv-x="350" 
d="M32 530q0 29 11 55t30.5 45.5t45.5 30.5t55 11t55 -11t45.5 -30.5t30.5 -45.5t11 -55q0 -30 -11 -55.5t-30.5 -45t-45.5 -30.5t-55 -11t-55 11t-45.5 30.5t-30.5 45t-11 55.5zM59 530q0 -24 9 -45t24.5 -36.5t36.5 -24.5t45 -9t45 9t36.5 24.5t24.5 36.5t9 45t-9 44.5
t-24.5 36t-36.5 24.5t-45 9t-45 -9t-36.5 -24.5t-24.5 -36t-9 -44.5z" />
    <glyph glyph-name="plusminus" unicode="&#xb1;" horiz-adv-x="522" 
d="M9 319h231v184h42v-184h231v-43h-231v-185h-42v185h-231v43zM9 43h504v-43h-504v43z" />
    <glyph glyph-name="twosuperior" unicode="&#xb2;" horiz-adv-x="337" 
d="M164 657q-21 0 -36 -6.5t-26 -16t-17 -21t-9 -21.5l-18 25q21 29 48.5 42t66.5 13q54 0 90.5 -24.5t36.5 -78.5q0 -24 -7 -44.5t-28.5 -48t-61.5 -66t-107 -97.5l2 -12h48.5t53 0.5t52.5 1t48 2.5q-2 -6 -2 -10.5v-9.5v-9.5t1 -9.5q-35 1 -66.5 2t-67.5 1q-35 0 -68 -1.5
t-68 -3.5v7q10 10 19.5 18t19.5 17h-1q40 38 73 70t55.5 62.5t35 61t12.5 66.5q0 48 -23.5 69.5t-55.5 21.5zM76 591v1l2 -2z" />
    <glyph glyph-name="threesuperior" unicode="&#xb3;" horiz-adv-x="325" 
d="M39 311q12 -12 34.5 -23t54.5 -11q49 0 78.5 29t29.5 73q0 27 -7.5 45t-20 29t-28 15.5t-31.5 4.5q-10 0 -18.5 -1t-15.5 -3q2 5 1 5t-1 5q0 4 0.5 6t-0.5 5q7 -2 13.5 -2.5t12.5 -0.5q23 0 38 9t23.5 23t12 31t3.5 32q0 38 -22 56.5t-51 18.5q-27 0 -47.5 -14t-29.5 -30
l1 -2q-4 7 -6 14t-5 14q13 11 36.5 22t64.5 11q47 0 79.5 -20.5t32.5 -64.5q0 -21 -8 -37.5t-21 -28.5t-28.5 -20t-30.5 -11v-10q17 -2 36 -7t35.5 -15.5t27.5 -27.5t11 -43q0 -57 -44.5 -90.5t-118.5 -33.5q-32 0 -57 6t-42 13zM36 314l4 -2h-1v-1z" />
    <glyph glyph-name="acute" unicode="&#xb4;" horiz-adv-x="282" 
d="M181 709q10 10 20.5 16.5t20.5 6.5q8 0 18.5 -6.5t10.5 -20.5q0 -16 -12 -26t-23 -18q-38 -23 -73.5 -46.5t-73.5 -47.5h-28z" />
    <glyph glyph-name="mu" unicode="&#xb5;" horiz-adv-x="461" 
d="M208 -15q-26 0 -50.5 7.5t-47.5 29.5q0 -76 1.5 -151t7.5 -141q-17 3 -36 3q-11 0 -20 -1t-18 -3q0 36 0.5 65t1.5 61q1 46 1.5 93.5t0.5 105.5q0 74 -0.5 135t-1.5 116q-1 44 -1 84v80q9 -2 19 -3t19 -1t17.5 1t17.5 3q-5 -60 -7 -130.5t-2 -145.5q0 -54 9.5 -82.5
t23.5 -43.5q15 -17 37.5 -28.5t53.5 -11.5q45 0 74.5 19.5t43.5 48.5q7 16 11.5 29t6.5 33.5t2.5 55.5t0.5 95v83t-2 78q9 -2 17.5 -3t19.5 -1t20 1t17 3q-2 -40 -3.5 -77t-2.5 -74t-1 -74.5v-77.5q0 -44 0.5 -86t2.5 -84q-8 2 -17 3t-17 1q-17 0 -33 -3q2 22 1.5 49.5
t-0.5 48.5q-32 -54 -75.5 -82t-91.5 -28z" />
    <glyph glyph-name="paragraph" unicode="&#xb6;" horiz-adv-x="496" 
d="M368 649l-75 -12v-754h-27v412q-65 0 -112 15t-78.5 41.5t-46.5 64t-15 82.5q0 92 52.5 137t144.5 45h259v-16l-76 -12v-769h-26v766z" />
    <glyph glyph-name="periodcentered" unicode="&#xb7;" horiz-adv-x="183" 
d="M34 305q0 23 16.5 39.5t39.5 16.5t39.5 -16.5t16.5 -39.5t-16.5 -39t-39.5 -16t-39.5 16t-16.5 39z" />
    <glyph glyph-name="cedilla" unicode="&#xb8;" horiz-adv-x="246" 
d="M32 -190q12 -4 30.5 -7t40.5 -3q27 0 46.5 12.5t19.5 35.5q0 25 -17 35t-40 10q-14 0 -25 -1t-17 -4q-2 1 -3 2q9 26 20 50t20 50h24l-26 -78q22 9 37 9q38 0 58.5 -18.5t20.5 -48.5q0 -20 -9.5 -35.5t-25 -25.5t-36.5 -15t-44 -5q-27 0 -48 5t-35 10z" />
    <glyph glyph-name="onesuperior" unicode="&#xb9;" horiz-adv-x="229" 
d="M132 625l-9 2q-17 -8 -35 -17.5t-36 -19.5q-4 5 -8 9.5t-9 6.5v4q36 12 74 27.5t71 34.5h5q-3 -38 -4 -76.5t-1 -77.5v-101q0 -38 1 -74.5t4 -76.5q-15 3 -28 3q-14 0 -29 -3q3 42 3.5 77t0.5 74v208z" />
    <glyph glyph-name="ordmasculine" unicode="&#xba;" horiz-adv-x="395" 
d="M40 524q0 40 13.5 68.5t36 46t51 25.5t57.5 8q28 0 56 -8t50 -25.5t36 -46t14 -68.5t-14 -67.5t-36 -45t-50 -25.5t-56 -8q-29 0 -57.5 8t-51 25.5t-36 45t-13.5 67.5zM97 524q0 -24 5 -47.5t17 -42t31 -30t48 -11.5q28 0 47 11.5t30.5 30t16.5 42t5 47.5q0 25 -5 48.5
t-16.5 42.5t-30.5 30.5t-47 11.5q-29 0 -48 -11.5t-31 -30.5t-17 -42.5t-5 -48.5z" />
    <glyph glyph-name="guillemotright" unicode="&#xbb;" horiz-adv-x="362" 
d="M193 393q8 2 17 7.5t14 12.5q30 -48 58 -92t57 -92q-30 -46 -60.5 -90t-61.5 -90q-12 15 -28 21l110 158zM46 393q8 2 17 7.5t14 12.5l57.5 -92l57.5 -92q-31 -46 -61 -90t-61 -90q-12 15 -28 21l109 158z" />
    <glyph glyph-name="onequarter" unicode="&#xbc;" horiz-adv-x="762" 
d="M430 121q54 69 105.5 137t106.5 138q10 -3 24 -3q6 0 10.5 0.5t9.5 1.5q-4 -66 -4 -129.5v-128.5q14 0 30 1t27 3q-2 -10 -2 -16q0 -8 2 -18q-21 3 -57 3q0 -27 0.5 -56.5t2.5 -56.5q-8 2 -13.5 2.5t-13.5 0.5t-13.5 -0.5t-13.5 -2.5q2 26 3 54.5t1 58.5q-29 0 -59 -0.5
t-57.5 -1t-50.5 -1t-38 -1.5v15zM468 682q9 -3 21 -3q10 0 14 1q-71 -180 -138 -353.5t-137 -352.5q-9 3 -20 3t-15 -1zM118 625l-9 2q-36 -17 -71 -37q-4 5 -8 9.5t-9 6.5v4q36 12 74 27.5t71 34.5h5q-3 -38 -4 -76.5t-1 -77.5v-101q0 -38 1 -74.5t4 -76.5q-15 3 -28 3
q-14 0 -29 -3q3 42 3.5 77t0.5 74v208zM635 338l-2 18q-10 -12 -24 -31t-24 -31q-28 -35 -54 -71t-50 -75l2 -11h152v201z" />
    <glyph glyph-name="onehalf" unicode="&#xbd;" horiz-adv-x="749" 
d="M591 389q-21 0 -36 -6.5t-26 -16.5t-17 -21t-9 -21l-17 25q20 29 47.5 41.5t66.5 12.5q54 0 90.5 -24.5t36.5 -78.5q0 -24 -7 -44.5t-28.5 -48t-61.5 -66t-107 -96.5l2 -13h48.5t53 0.5t52.5 1.5t48 3q-2 -7 -2 -11.5v-9.5v-9.5t1 -9.5q-35 1 -66.5 2t-67.5 1
q-35 0 -68 -1.5t-68 -3.5v7q10 10 20 18t19 18h-1q40 38 73 70t55.5 62t35 60.5t12.5 66.5q0 48 -23.5 70t-55.5 22zM465 682q9 -3 21 -3q10 0 14 1q-71 -180 -138 -353.5t-137 -352.5q-9 3 -20 3h-8t-7 -1zM118 625l-9 2q-17 -8 -35 -17.5t-36 -19.5q-4 5 -8 9.5t-9 6.5v4
q36 12 74 27.5t71 34.5h5q-3 -38 -4 -76.5t-1 -77.5v-101q0 -38 1 -74.5t4 -76.5q-15 3 -28 3q-14 0 -29 -3q3 42 3.5 77t0.5 74v208zM503 323v1l2 -2z" />
    <glyph glyph-name="threequarters" unicode="&#xbe;" horiz-adv-x="803" 
d="M470 121q54 69 105.5 137t106.5 138q10 -3 24 -3q7 0 11.5 0.5t9.5 1.5q-4 -66 -4 -129.5v-128.5q14 0 29.5 1t26.5 3q-2 -10 -2 -16q0 -8 2 -18q-21 3 -56 3q0 -27 0.5 -56.5t2.5 -56.5q-15 3 -28 3q-8 0 -13.5 -0.5t-13.5 -2.5q2 26 3 54.5t1 58.5q-29 0 -59 -0.5
t-57 -1t-50.5 -1t-38.5 -1.5v15zM26 311q12 -12 34 -23t54 -11q50 0 79 29t29 73q0 27 -7.5 45t-20 29t-28 15.5t-31.5 4.5q-10 0 -18 -1t-15 -3q2 5 1 5t-1 5q0 4 0.5 6t-0.5 5q7 -2 13 -2.5t12 -0.5q23 0 38 9t23.5 23t12 31t3.5 32q0 38 -22 56.5t-51 18.5q-26 0 -47 -14
t-30 -30l1 -2q-4 7 -6 14t-5 14q13 11 37 22t64 11q47 0 79.5 -20.5t32.5 -64.5q0 -21 -8 -37.5t-21 -28.5t-28 -20t-30 -11v-10q16 -2 35.5 -7t35.5 -15.5t27 -27.5t11 -43q0 -57 -44.5 -90.5t-118.5 -33.5q-32 0 -56.5 6t-41.5 13zM521 682q9 -3 20 -3q10 0 14 1
q-70 -181 -137 -353.5t-138 -352.5q-9 3 -20 3q-10 0 -14 -1zM675 338l-2 18q-9 -12 -23.5 -31t-24.5 -31q-27 -35 -53.5 -71t-49.5 -75l2 -11h151v201zM23 314l4 -2h-1v-1z" />
    <glyph glyph-name="questiondown" unicode="&#xbf;" horiz-adv-x="286" 
d="M140 273q-9 0 -17.5 -2.5t-14.5 -4.5q5 8 9 21q5 2 12.5 3t17.5 1q12 0 29.5 -5.5t34 -18.5t28.5 -33t12 -50q0 -26 -8 -47.5t-21 -41t-30 -37.5t-34 -35q-32 -32 -57 -64t-25 -74q0 -20 8 -36.5t21.5 -28t29.5 -17.5t33 -6q26 0 49 11t41 30q2 -12 1.5 -19.5t1.5 -18.5
q-20 -11 -42.5 -20.5t-56.5 -9.5q-35 0 -62 10.5t-45.5 28t-28 41t-9.5 49.5q0 28 8.5 52t23 45t32.5 40.5t36 37.5q32 32 56.5 63.5t24.5 70.5q0 10 -3.5 21.5t-11 21.5t-18.5 16t-25 6zM111 427q0 22 15.5 37.5t36.5 15.5q22 0 37.5 -15.5t15.5 -37.5q0 -21 -15.5 -37
t-37.5 -16q-21 0 -36.5 16t-15.5 37zM105 265q1 0 1.5 0.5t1.5 0.5q0 -1 -0.5 -1t-0.5 -1l-2 1v0z" />
    <glyph glyph-name="Agrave" unicode="&#xc0;" horiz-adv-x="662" 
d="M347 698q17 -41 36.5 -87.5t39.5 -94.5q32 -77 65 -155t63.5 -148t55.5 -126.5t41 -89.5q-23 3 -45 3q-12 0 -25.5 -1t-24.5 -3q-6 21 -15 46t-19.5 52.5t-22 55t-21.5 53.5q-6 16 -13 33t-13 31q-33 1 -68.5 1.5t-68.5 0.5q-32 0 -64.5 -0.5t-63.5 -1.5
q-15 -37 -30 -74.5t-27.5 -72.5t-23.5 -67t-18 -57q-8 2 -16 3t-17 1q-15 0 -28 -3q81 177 158 349.5t154 351.5h11zM318 580l-119 -277q10 0 30.5 -0.5t32.5 -0.5q14 -1 27.5 -1h27.5q28 0 60.5 0.5t60.5 1.5zM216 836q-11 7 -22.5 17t-11.5 27q0 14 10 20.5t18 6.5
q10 0 21 -6.5t21 -16.5q34 -35 69.5 -71.5t70.5 -70.5h-29z" />
    <glyph glyph-name="Aacute" unicode="&#xc1;" horiz-adv-x="663" 
d="M338 698q17 -41 36.5 -87.5t39.5 -94.5q32 -77 65 -155t63.5 -148t55.5 -126.5t41 -89.5q-23 3 -45 3q-12 0 -25.5 -1t-24.5 -3q-6 21 -15 46t-19.5 52.5t-22 55t-21.5 53.5q-6 16 -13 33t-13 31q-33 1 -68.5 1.5t-68.5 0.5q-32 0 -64.5 -0.5t-63.5 -1.5
q-15 -37 -30 -74.5t-27.5 -72.5t-23.5 -67t-18 -57q-8 2 -16 3t-17 1q-15 0 -28 -3q81 177 158 349.5t154 351.5h11zM309 580l-119 -277q10 0 30.5 -0.5t32.5 -0.5q14 -1 27.5 -1h27.5q28 0 60.5 0.5t60.5 1.5zM410 884q10 10 21 16.5t21 6.5q8 0 18 -6.5t10 -20.5
q0 -17 -11.5 -27t-22.5 -17q-38 -24 -74 -47.5t-73 -46.5h-29z" />
    <glyph glyph-name="Acircumflex" unicode="&#xc2;" horiz-adv-x="668" 
d="M345 698q17 -41 36.5 -87.5t39.5 -94.5q32 -77 65 -155t63.5 -148t55.5 -126.5t41 -89.5q-23 3 -45 3q-12 0 -25.5 -1t-24.5 -3q-6 21 -15 46t-19.5 52.5t-22 55t-21.5 53.5q-6 16 -13 33t-13 31q-33 1 -68.5 1.5t-68.5 0.5q-32 0 -64.5 -0.5t-63.5 -1.5
q-15 -37 -30 -74.5t-27.5 -72.5t-23.5 -67t-18 -57q-8 2 -16 3t-17 1q-15 0 -28 -3q81 177 158 349.5t154 351.5h11zM316 580l-119 -277q10 0 30.5 -0.5t32.5 -0.5q14 -1 27.5 -1h27.5q28 0 60.5 0.5t60.5 1.5zM333 850q-30 -26 -61.5 -54t-61.5 -54h-25q31 41 58 79t59 80
h62q31 -41 59.5 -80t58.5 -79h-25z" />
    <glyph glyph-name="Atilde" unicode="&#xc3;" horiz-adv-x="662" 
d="M342 698q17 -41 36.5 -87.5t39.5 -94.5q32 -77 65 -155t63.5 -148t55.5 -126.5t41 -89.5q-23 3 -45 3q-12 0 -25.5 -1t-24.5 -3q-6 21 -15 46t-19.5 52.5t-22 55t-21.5 53.5q-6 16 -13 33t-13 31q-33 1 -68.5 1.5t-68.5 0.5q-32 0 -64.5 -0.5t-63.5 -1.5
q-15 -37 -30 -74.5t-27.5 -72.5t-23.5 -67t-18 -57q-8 2 -16 3t-17 1q-15 0 -28 -3q81 177 158 349.5t154 351.5h11zM313 580l-119 -277q10 0 30.5 -0.5t32.5 -0.5q14 -1 27.5 -1h27.5q28 0 60.5 0.5t60.5 1.5zM170 767q3 17 10.5 33.5t19.5 30t29 22t40 8.5q17 0 31.5 -4.5
t40.5 -17.5q30 -14 43 -19t26 -5q21 0 37.5 17t24.5 33h19q-3 -12 -9.5 -29t-18.5 -32.5t-30.5 -26t-45.5 -10.5q-14 0 -31 5t-40 17q-29 16 -42.5 20.5t-25.5 4.5q-25 0 -37 -11t-21 -36h-20z" />
    <glyph glyph-name="Adieresis" unicode="&#xc4;" horiz-adv-x="661" 
d="M342 698q17 -41 36.5 -87.5t39.5 -94.5q32 -77 65 -155t63.5 -148t55.5 -126.5t41 -89.5q-23 3 -45 3q-12 0 -25.5 -1t-24.5 -3q-6 21 -15 46t-19.5 52.5t-22 55t-21.5 53.5q-6 16 -13 33t-13 31q-33 1 -68.5 1.5t-68.5 0.5q-32 0 -64.5 -0.5t-63.5 -1.5
q-15 -37 -30 -74.5t-27.5 -72.5t-23.5 -67t-18 -57q-8 2 -16 3t-17 1q-15 0 -28 -3q81 177 158 349.5t154 351.5h11zM313 580l-119 -277q10 0 30.5 -0.5t32.5 -0.5q14 -1 27.5 -1h27.5q28 0 60.5 0.5t60.5 1.5zM384 816q0 19 13.5 32.5t32.5 13.5q20 0 33.5 -13.5
t13.5 -32.5q0 -20 -13.5 -33.5t-33.5 -13.5q-19 0 -32.5 13.5t-13.5 33.5zM184 816q0 19 13.5 32.5t33.5 13.5q19 0 32.5 -13.5t13.5 -32.5q0 -20 -13.5 -33.5t-32.5 -13.5q-20 0 -33.5 13.5t-13.5 33.5z" />
    <glyph glyph-name="Aring" unicode="&#xc5;" horiz-adv-x="667" 
d="M345 698q17 -41 36.5 -87.5t39.5 -94.5q32 -77 65 -155t63.5 -148t55.5 -126.5t41 -89.5q-23 3 -45 3q-12 0 -25.5 -1t-24.5 -3q-6 21 -15 46t-19.5 52.5t-22 55t-21.5 53.5q-6 16 -13 33t-13 31q-33 1 -68.5 1.5t-68.5 0.5q-32 0 -64.5 -0.5t-63.5 -1.5
q-15 -37 -30 -74.5t-27.5 -72.5t-23.5 -67t-18 -57q-8 2 -16 3t-17 1q-15 0 -28 -3q81 177 158 349.5t154 351.5h11zM316 580l-119 -277q10 0 30.5 -0.5t32.5 -0.5q14 -1 27.5 -1h27.5q28 0 60.5 0.5t60.5 1.5zM235 824q0 41 28.5 69.5t70.5 28.5q41 0 69.5 -28.5
t28.5 -69.5q0 -20 -7.5 -38t-21 -31.5t-31.5 -21.5t-39 -8q-20 0 -38 8t-31.5 21.5t-21 31.5t-7.5 38zM267 824q0 -28 19 -47t47 -19q29 0 48 19t19 47q0 27 -19 46.5t-47 19.5q-29 0 -48 -19.5t-19 -46.5z" />
    <glyph glyph-name="AE" unicode="&#xc6;" horiz-adv-x="829" 
d="M231 256q-41 -67 -76 -132t-66 -128q-17 4 -38 4q-17 0 -35 -3q46 66 101.5 149t114 173.5t118 184.5t114.5 181q43 -2 83.5 -3.5t84.5 -1.5q41 0 82 1t80 3q-4 -12 -4 -26q0 -6 1 -12.5t3 -11.5q-14 3 -30.5 5t-43 4t-66.5 3t-102 1q0 -11 -0.5 -24t-1.5 -24
q-3 -68 -3 -134v-89q55 0 92.5 0.5t62 1.5t40 2t27.5 2h4q-3 -11 -3 -22q0 -12 3 -22h-5q-12 1 -27.5 2t-40 2t-61.5 1.5t-92 0.5v-108q0 -75 3 -150q1 -12 1.5 -26.5t0.5 -27.5q105 0 163 3t86 7q-3 -12 -3 -23t3 -23q-45 2 -84.5 3t-82.5 1t-83.5 -1.5t-83.5 -3.5
q6 63 6.5 126t0.5 129zM474 616h-19l-207 -328l226 -6v334z" />
    <glyph glyph-name="Ccedilla" unicode="&#xc7;" horiz-adv-x="629" 
d="M344 -19q-71 7 -131 34.5t-103 73.5t-67 109t-24 142q0 85 27.5 151.5t77 112.5t118.5 70t152 24q63 0 117 -13t96 -32q-7 -15 -11 -35t-7 -36v-3q-11 12 -29 28t-42.5 30t-56 24t-67.5 10q-61 0 -113 -19.5t-90.5 -60.5t-60.5 -103.5t-22 -147.5q0 -86 22 -148
t60.5 -103t90.5 -60.5t113 -19.5q35 0 65.5 8.5t56.5 21t46.5 26.5t35.5 25q-5 -27 -8 -53q-10 -8 -29.5 -17.5t-46.5 -18t-60 -14t-70 -5.5h-16l-27 -76q24 9 39 9q38 0 58.5 -18.5t20.5 -48.5q0 -20 -9.5 -35.5t-25.5 -25.5t-37 -15t-44 -5q-26 0 -47 5t-36 10q2 7 5 11.5
t5 10.5q13 -4 31 -7t39 -3q28 0 47 12.5t19 35.5q0 25 -16.5 35t-39.5 10q-32 0 -42 -5q-1 0 -1 1l-1 1zM599 91q-1 0 -1 -1q0 3 1 5l1 -5l-1 1v0z" />
    <glyph glyph-name="Egrave" unicode="&#xc8;" horiz-adv-x="402" 
d="M48 428q0 65 -2.5 129t-6.5 128q46 -2 88.5 -3.5t88.5 -1.5q45 0 87.5 1.5t86.5 3.5q-1 -6 -1.5 -12t-0.5 -14q0 -7 0.5 -13t1.5 -12q-14 1 -24.5 2t-21.5 2q-21 2 -43.5 3.5t-48.5 3t-57 2t-70 0.5q0 -13 -0.5 -27t-1.5 -27q-1 -18 -1.5 -37.5t-0.5 -42.5t0.5 -46
t0.5 -43v-50q45 0 80.5 0.5t65 2t53.5 3t46 3.5q-1 -6 -1.5 -12t-0.5 -13t0.5 -12.5t1.5 -11.5q-27 2 -61.5 3.5t-69.5 2.5t-65.5 1.5t-48.5 0.5q0 -9 -0.5 -20t-0.5 -28.5v-42.5v-61q0 -58 0.5 -98t1.5 -60q33 0 70.5 0.5t74 1.5t69.5 3.5t58 6.5q-1 -6 -1 -13v-12v-12
t1 -12q-45 2 -87 3.5t-89 1.5q-46 0 -90 -1.5t-90 -3.5q4 66 6.5 129.5t2.5 129.5v174zM94 836q-11 7 -22.5 17t-11.5 27q0 14 10 20.5t18 6.5q10 0 21 -6.5t21 -16.5q34 -35 69.5 -71.5t70.5 -70.5h-29z" />
    <glyph glyph-name="Eacute" unicode="&#xc9;" horiz-adv-x="401" 
d="M37 428q0 65 -2.5 129t-6.5 128q46 -2 88.5 -3.5t88.5 -1.5q45 0 87.5 1.5t86.5 3.5q-1 -6 -1.5 -12t-0.5 -14q0 -7 0.5 -13t1.5 -12q-14 1 -24.5 2t-21.5 2q-21 2 -43.5 3.5t-48.5 3t-57 2t-70 0.5q0 -13 -0.5 -27t-1.5 -27q-1 -18 -1.5 -37.5t-0.5 -42.5t0.5 -46
t0.5 -43v-50q45 0 80.5 0.5t65 2t53.5 3t46 3.5q-1 -6 -1.5 -12t-0.5 -13t0.5 -12.5t1.5 -11.5q-27 2 -61.5 3.5t-69.5 2.5t-65.5 1.5t-48.5 0.5q0 -9 -0.5 -20t-0.5 -28.5v-42.5v-61q0 -58 0.5 -98t1.5 -60q33 0 70.5 0.5t74 1.5t69.5 3.5t58 6.5q-1 -6 -1 -13v-12v-12
t1 -12q-45 2 -87 3.5t-89 1.5q-46 0 -90 -1.5t-90 -3.5q4 66 6.5 129.5t2.5 129.5v174zM286 884q10 10 21 16.5t21 6.5q8 0 18 -6.5t10 -20.5q0 -17 -11.5 -27t-22.5 -17q-38 -24 -74 -47.5t-73 -46.5h-29z" />
    <glyph glyph-name="Ecircumflex" unicode="&#xca;" horiz-adv-x="408" 
d="M46 428q0 65 -2.5 129t-6.5 128q46 -2 88.5 -3.5t88.5 -1.5q45 0 87.5 1.5t86.5 3.5q-1 -6 -1.5 -12t-0.5 -14q0 -7 0.5 -13t1.5 -12q-14 1 -24.5 2t-21.5 2q-21 2 -43.5 3.5t-48.5 3t-57 2t-70 0.5q0 -13 -0.5 -27t-1.5 -27q-1 -18 -1.5 -37.5t-0.5 -42.5t0.5 -46
t0.5 -43v-50q45 0 80.5 0.5t65 2t53.5 3t46 3.5q-1 -6 -1.5 -12t-0.5 -13t0.5 -12.5t1.5 -11.5q-27 2 -61.5 3.5t-69.5 2.5t-65.5 1.5t-48.5 0.5q0 -9 -0.5 -20t-0.5 -28.5v-42.5v-61q0 -58 0.5 -98t1.5 -60q33 0 70.5 0.5t74 1.5t69.5 3.5t58 6.5q-1 -6 -1 -13v-12v-12
t1 -12q-45 2 -87 3.5t-89 1.5q-46 0 -90 -1.5t-90 -3.5q4 66 6.5 129.5t2.5 129.5v174zM211 850q-30 -26 -61.5 -54t-61.5 -54h-25q31 41 58 79t58 80h63q31 -41 59 -80t59 -79h-25z" />
    <glyph glyph-name="Edieresis" unicode="&#xcb;" horiz-adv-x="407" 
d="M46 428q0 65 -2.5 129t-6.5 128q46 -2 88.5 -3.5t88.5 -1.5q45 0 87.5 1.5t86.5 3.5q-1 -6 -1.5 -12t-0.5 -14q0 -7 0.5 -13t1.5 -12q-14 1 -24.5 2t-21.5 2q-21 2 -43.5 3.5t-48.5 3t-57 2t-70 0.5q0 -13 -0.5 -27t-1.5 -27q-1 -18 -1.5 -37.5t-0.5 -42.5t0.5 -46
t0.5 -43v-50q45 0 80.5 0.5t65 2t53.5 3t46 3.5q-1 -6 -1.5 -12t-0.5 -13t0.5 -12.5t1.5 -11.5q-27 2 -61.5 3.5t-69.5 2.5t-65.5 1.5t-48.5 0.5q0 -9 -0.5 -20t-0.5 -28.5v-42.5v-61q0 -58 0.5 -98t1.5 -60q33 0 70.5 0.5t74 1.5t69.5 3.5t58 6.5q-1 -6 -1 -13v-12v-12
t1 -12q-45 2 -87 3.5t-89 1.5q-46 0 -90 -1.5t-90 -3.5q4 66 6.5 129.5t2.5 129.5v174zM65 816q0 19 13.5 32.5t33.5 13.5q19 0 32.5 -13.5t13.5 -32.5q0 -20 -13.5 -33.5t-32.5 -13.5q-20 0 -33.5 13.5t-13.5 33.5zM265 816q0 19 13.5 32.5t32.5 13.5q20 0 33.5 -13.5
t13.5 -32.5q0 -20 -13.5 -33.5t-33.5 -13.5q-19 0 -32.5 13.5t-13.5 33.5z" />
    <glyph glyph-name="Igrave" unicode="&#xcc;" horiz-adv-x="254" 
d="M127 427q0 65 -2.5 128.5t-5.5 128.5q11 -2 22 -3t23 -1q11 0 22 1t22 3q-3 -66 -5.5 -128.5t-2.5 -128.5v-174q0 -66 2.5 -129t5.5 -128q-11 2 -22 3t-22 1q-12 0 -23 -1t-22 -3q3 66 5.5 128.5t2.5 128.5v174zM45 836q-11 7 -22.5 17t-11.5 27q0 14 10 20.5t18 6.5
q10 0 20.5 -6.5t21.5 -16.5q34 -35 69.5 -71.5t70.5 -70.5h-29z" />
    <glyph glyph-name="Iacute" unicode="&#xcd;" horiz-adv-x="253" 
d="M52 427q0 65 -2.5 128.5t-5.5 128.5q11 -2 22 -3t22 -1q12 0 23 1t22 3q-3 -66 -5.5 -128.5t-2.5 -128.5v-174q0 -66 2.5 -129t5.5 -128q-11 2 -22 3t-23 1q-11 0 -22 -1t-22 -3q3 66 5.5 128.5t2.5 128.5v174zM173 884q9 8 20.5 15.5t20.5 7.5q8 0 18.5 -6.5t10.5 -20.5
q0 -17 -12 -27t-23 -17q-38 -24 -73.5 -47.5t-73.5 -46.5h-28z" />
    <glyph glyph-name="Icircumflex" unicode="&#xce;" horiz-adv-x="336" 
d="M130 427q0 65 -2.5 128.5t-5.5 128.5q11 -2 22.5 -3t22.5 -1t22.5 1t22.5 3q-3 -66 -5.5 -128.5t-2.5 -128.5v-174q0 -66 2.5 -129t5.5 -128q-11 2 -22.5 3t-22.5 1t-22.5 -1t-22.5 -3q3 66 5.5 128.5t2.5 128.5v174zM167 850q-30 -26 -61.5 -54t-61.5 -54h-25
q31 41 58 79t59 80h62q31 -41 59.5 -80t58.5 -79h-25z" />
    <glyph glyph-name="Idieresis" unicode="&#xcf;" horiz-adv-x="319" 
d="M122 427q0 65 -2.5 128.5t-5.5 128.5q11 -2 22.5 -3t22.5 -1t22.5 1t22.5 3q-3 -66 -5.5 -128.5t-2.5 -128.5v-174q0 -66 2.5 -129t5.5 -128q-11 2 -22.5 3t-22.5 1t-22.5 -1t-22.5 -3q3 66 5.5 128.5t2.5 128.5v174zM13 816q0 19 13.5 32.5t33.5 13.5q19 0 32.5 -13.5
t13.5 -32.5q0 -20 -13.5 -33.5t-32.5 -13.5q-20 0 -33.5 13.5t-13.5 33.5zM213 816q0 19 13.5 32.5t32.5 13.5q20 0 33.5 -13.5t13.5 -32.5q0 -20 -13.5 -33.5t-33.5 -13.5q-19 0 -32.5 13.5t-13.5 33.5z" />
    <glyph glyph-name="Eth" unicode="&#xd0;" horiz-adv-x="780" 
d="M125 427q0 65 -2.5 129t-5.5 129q38 -2 74 -3.5t74 -1.5q20 0 38.5 0.5t37.5 1.5q20 1 39 2t38 1q88 0 150.5 -23t102.5 -65.5t58.5 -104t18.5 -138.5q0 -100 -34.5 -168.5t-88 -111t-118 -61t-123.5 -18.5q-17 0 -34 0.5t-34 1.5l-34 2t-34 1q-32 0 -65.5 -1t-65.5 -3
q3 66 5.5 128.5t2.5 128.5v117q-22 0 -47 0.5t-51 -1.5q1 5 1 15t-1 15q28 -2 51.5 -1.5t46.5 0.5v29zM198 253q0 -54 1.5 -110.5t4.5 -109.5q23 -5 61 -8t77 -3q57 0 113.5 13.5t102 50.5t73.5 101.5t28 166.5q0 90 -22 147.5t-61 91t-93 46.5t-117 13q-48 0 -89 -3t-73 -7
q-3 -49 -4.5 -104.5t-1.5 -110.5v-29q48 0 97.5 0.5t95.5 2.5q-1 -5 -1 -8.5v-8.5v-9.5t1 -8.5q-47 2 -95.5 3t-97.5 1v-117z" />
    <glyph glyph-name="Ntilde" unicode="&#xd1;" horiz-adv-x="661" 
d="M608 -18q-52 61 -109.5 125.5t-117.5 129.5t-121 130.5t-120 127.5l-51 56v-25q-1 -29 -2 -75t-1 -119q0 -30 0.5 -77t2 -96.5t2.5 -93.5t3 -68q-6 2 -14.5 2.5t-15.5 0.5q-16 0 -31 -3q2 16 4.5 46t4.5 67.5t4 80.5t3.5 85.5t2.5 82.5t1 72q0 95 -0.5 163.5t-2.5 103.5
h9q10 -11 20.5 -22.5t21.5 -23.5q60 -65 126 -137t130.5 -141t122.5 -129.5t100 -103.5v138.5t-0.5 141.5t-2.5 137t-5 125q16 -3 29 -3q8 0 13.5 0.5t12.5 2.5q-2 -26 -5 -70.5t-5 -93.5t-3.5 -95t-1.5 -74q0 -38 0.5 -93l1 -110t1 -100.5t0.5 -64.5h-7zM186 767
q3 17 11 33.5t20 30t29 22t39 8.5q18 0 32 -4.5t40 -17.5q30 -14 43 -19t26 -5q21 0 37.5 17t24.5 33h20q-3 -12 -9.5 -29t-19 -32.5t-31 -26t-45.5 -10.5q-14 0 -31 5t-40 17q-29 16 -42.5 20.5t-25.5 4.5q-24 0 -36.5 -11t-21.5 -36h-20z" />
    <glyph glyph-name="Ograve" unicode="&#xd2;" horiz-adv-x="793" 
d="M24 340q0 85 27.5 151.5t77 112.5t118 70t151.5 24t152 -24t118.5 -70t77 -112.5t27.5 -151.5t-27.5 -151.5t-77 -112.5t-118.5 -70t-152 -24t-151.5 24t-118 70t-77 112.5t-27.5 151.5zM684 340q0 85 -22 147.5t-60.5 103.5t-90.5 60.5t-113 19.5q-60 0 -112.5 -19.5
t-90.5 -60.5t-60 -103.5t-22 -147.5q0 -86 22 -148t60 -103t90.5 -60.5t112.5 -19.5q61 0 113 19.5t90.5 60.5t60.5 103t22 148zM279 836q-11 7 -22.5 17t-11.5 27q0 14 10 20.5t18 6.5q10 0 21 -6.5t21 -16.5q34 -35 69.5 -71.5t70.5 -70.5h-29z" />
    <glyph glyph-name="Oacute" unicode="&#xd3;" horiz-adv-x="793" 
d="M20 340q0 85 27.5 151.5t77 112.5t118 70t151.5 24t152 -24t118.5 -70t77 -112.5t27.5 -151.5t-27.5 -151.5t-77 -112.5t-118.5 -70t-152 -24t-151.5 24t-118 70t-77 112.5t-27.5 151.5zM680 340q0 85 -22 147.5t-60.5 103.5t-90.5 60.5t-113 19.5q-60 0 -112.5 -19.5
t-90.5 -60.5t-60 -103.5t-22 -147.5q0 -86 22 -148t60 -103t90.5 -60.5t112.5 -19.5q61 0 113 19.5t90.5 60.5t60.5 103t22 148zM478 884q10 10 21 16.5t21 6.5q8 0 18 -6.5t10 -20.5q0 -17 -11.5 -27t-22.5 -17q-38 -24 -74 -47.5t-73 -46.5h-29z" />
    <glyph glyph-name="Ocircumflex" unicode="&#xd4;" horiz-adv-x="797" 
d="M24 340q0 85 27.5 151.5t77 112.5t118 70t151.5 24t152 -24t118.5 -70t77 -112.5t27.5 -151.5t-27.5 -151.5t-77 -112.5t-118.5 -70t-152 -24t-151.5 24t-118 70t-77 112.5t-27.5 151.5zM684 340q0 85 -22 147.5t-60.5 103.5t-90.5 60.5t-113 19.5q-60 0 -112.5 -19.5
t-90.5 -60.5t-60 -103.5t-22 -147.5q0 -86 22 -148t60 -103t90.5 -60.5t112.5 -19.5q61 0 113 19.5t90.5 60.5t60.5 103t22 148zM398 850q-30 -26 -61.5 -54t-61.5 -54h-25q31 41 58 79t59 80h62q31 -41 59.5 -80t58.5 -79h-25z" />
    <glyph glyph-name="Otilde" unicode="&#xd5;" horiz-adv-x="797" 
d="M24 340q0 85 27.5 151.5t77 112.5t118 70t151.5 24t152 -24t118.5 -70t77 -112.5t27.5 -151.5t-27.5 -151.5t-77 -112.5t-118.5 -70t-152 -24t-151.5 24t-118 70t-77 112.5t-27.5 151.5zM684 340q0 85 -22 147.5t-60.5 103.5t-90.5 60.5t-113 19.5q-60 0 -112.5 -19.5
t-90.5 -60.5t-60 -103.5t-22 -147.5q0 -86 22 -148t60 -103t90.5 -60.5t112.5 -19.5q61 0 113 19.5t90.5 60.5t60.5 103t22 148zM238 767q3 17 10.5 33.5t19.5 30t29 22t40 8.5q17 0 31.5 -4.5t40.5 -17.5q30 -14 43 -19t26 -5q21 0 37.5 17t24.5 33h19q-3 -12 -9.5 -29
t-18.5 -32.5t-30.5 -26t-45.5 -10.5q-14 0 -31 5t-40 17q-29 16 -42.5 20.5t-25.5 4.5q-25 0 -37 -11t-21 -36h-20z" />
    <glyph glyph-name="Odieresis" unicode="&#xd6;" horiz-adv-x="797" 
d="M24 340q0 85 27.5 151.5t77 112.5t118 70t151.5 24t152 -24t118.5 -70t77 -112.5t27.5 -151.5t-27.5 -151.5t-77 -112.5t-118.5 -70t-152 -24t-151.5 24t-118 70t-77 112.5t-27.5 151.5zM684 340q0 85 -22 147.5t-60.5 103.5t-90.5 60.5t-113 19.5q-60 0 -112.5 -19.5
t-90.5 -60.5t-60 -103.5t-22 -147.5q0 -86 22 -148t60 -103t90.5 -60.5t112.5 -19.5q61 0 113 19.5t90.5 60.5t60.5 103t22 148zM452 816q0 19 13.5 32.5t32.5 13.5q20 0 33.5 -13.5t13.5 -32.5q0 -20 -13.5 -33.5t-33.5 -13.5q-19 0 -32.5 13.5t-13.5 33.5zM252 816
q0 19 13.5 32.5t33.5 13.5q19 0 32.5 -13.5t13.5 -32.5q0 -20 -13.5 -33.5t-32.5 -13.5q-20 0 -33.5 13.5t-13.5 33.5z" />
    <glyph glyph-name="multiply" unicode="&#xd7;" horiz-adv-x="518" 
d="M230 252q-46 45 -93.5 93t-93.5 94l29 29l187 -187q46 46 94 93.5t94 93.5l28 -29l-187 -187l187 -187q-8 -8 -14 -14.5t-14 -14.5l-188 186l-187 -186l-29 29z" />
    <glyph glyph-name="Oslash" unicode="&#xd8;" horiz-adv-x="809" 
d="M30 340q0 85 27.5 151.5t77 112.5t118 70t151.5 24q72 0 134 -18.5t110 -54.5q9 8 21.5 22t25.5 29t24 29t17 23q3 -4 8.5 -8.5t10.5 -7.5l-20.5 -20.5t-25.5 -26.5t-25.5 -27.5t-20.5 -22.5q55 -48 85.5 -116.5t30.5 -158.5q0 -85 -27.5 -151.5t-77 -112.5t-118.5 -70
t-152 -24q-70 0 -131.5 18t-109.5 53q-10 -11 -22.5 -25t-25.5 -29t-24.5 -29t-18.5 -24q-4 4 -9 8t-10 7q7 7 19 19.5t25 27.5t26.5 30t23.5 27q-56 47 -86.5 116t-30.5 159zM613 585q-40 44 -93 65t-116 21q-60 0 -112.5 -19.5t-90.5 -60.5t-60 -103.5t-22 -147.5
q0 -75 18 -133t50 -100zM198 92q40 -42 92.5 -62.5t113.5 -20.5t113 19.5t90.5 60.5t60.5 103t22 148q0 73 -17 130t-49 101z" />
    <glyph glyph-name="Ugrave" unicode="&#xd9;" horiz-adv-x="643" 
d="M564 360q0 137 -0.5 213.5t-4.5 109.5q18 -3 36 -3q12 0 24 3q-3 -36 -6 -84t-5 -103t-3.5 -113.5t-2.5 -113.5q-1 -66 -20 -119.5t-55.5 -90.5t-89 -57t-119.5 -20q-149 0 -217 69.5t-68 215.5q0 23 1 46.5t2 42.5q1 18 1.5 35.5t0.5 35.5q0 72 -1.5 131.5t-3.5 103.5
q0 6 -0.5 11.5t-0.5 10.5q11 -2 23.5 -3t23.5 -1q21 0 38 3q-2 -23 -4 -58.5t-3.5 -80t-2.5 -96t-1 -106.5q0 -35 1 -72.5t7.5 -73.5t20.5 -68t39.5 -56.5t65 -38.5t97.5 -14q57 0 96 16t64 43.5t38.5 62.5t20 73t7.5 75.5t1 70.5zM207 836q-11 7 -22.5 17t-11.5 27
q0 14 10 20.5t18 6.5q10 0 21 -6.5t21 -16.5q34 -35 69.5 -71.5t70.5 -70.5h-29z" />
    <glyph glyph-name="Uacute" unicode="&#xda;" horiz-adv-x="642" 
d="M557 360q0 137 -0.5 213.5t-4.5 109.5q18 -3 36 -3q12 0 24 3q-3 -36 -6 -84t-5 -103t-3.5 -113.5t-2.5 -113.5q-1 -66 -20 -119.5t-55.5 -90.5t-89 -57t-119.5 -20q-149 0 -217 69.5t-68 215.5q0 23 1 46.5t2 42.5q1 18 1.5 35.5t0.5 35.5q0 72 -1.5 131.5t-3.5 103.5
q0 6 -0.5 11.5t-0.5 10.5q11 -2 23.5 -3t23.5 -1q21 0 38 3q-2 -23 -4 -58.5t-3.5 -80t-2.5 -96t-1 -106.5q0 -35 1 -72.5t7.5 -73.5t20.5 -68t39.5 -56.5t65 -38.5t97.5 -14q57 0 96 16t64 43.5t38.5 62.5t20 73t7.5 75.5t1 70.5zM403 884q9 8 21 15.5t21 7.5q8 0 18 -6.5
t10 -20.5q0 -17 -11.5 -27t-22.5 -17q-38 -24 -74 -47.5t-73 -46.5h-29z" />
    <glyph glyph-name="Ucircumflex" unicode="&#xdb;" horiz-adv-x="647" 
d="M563 360q0 137 -0.5 213.5t-4.5 109.5q18 -3 36 -3q12 0 24 3q-3 -36 -6 -84t-5 -103t-3.5 -113.5t-2.5 -113.5q-1 -66 -20 -119.5t-55.5 -90.5t-89 -57t-119.5 -20q-149 0 -217 69.5t-68 215.5q0 23 1 46.5t2 42.5q1 18 1.5 35.5t0.5 35.5q0 72 -1.5 131.5t-3.5 103.5
q0 6 -0.5 11.5t-0.5 10.5q11 -2 23.5 -3t23.5 -1q21 0 38 3q-2 -23 -4 -58.5t-3.5 -80t-2.5 -96t-1 -106.5q0 -35 1 -72.5t7.5 -73.5t20.5 -68t39.5 -56.5t65 -38.5t97.5 -14q57 0 96 16t64 43.5t38.5 62.5t20 73t7.5 75.5t1 70.5zM325 850q-30 -26 -61.5 -54t-61.5 -54h-25
q31 41 58 79t59 80h62q31 -41 59.5 -80t58.5 -79h-25z" />
    <glyph glyph-name="Udieresis" unicode="&#xdc;" horiz-adv-x="648" 
d="M563 360q0 137 -0.5 213.5t-4.5 109.5q18 -3 36 -3q12 0 24 3q-3 -36 -6 -84t-5 -103t-3.5 -113.5t-2.5 -113.5q-1 -66 -20 -119.5t-55.5 -90.5t-89 -57t-119.5 -20q-149 0 -217 69.5t-68 215.5q0 23 1 46.5t2 42.5q1 18 1.5 35.5t0.5 35.5q0 72 -1.5 131.5t-3.5 103.5
q0 6 -0.5 11.5t-0.5 10.5q11 -2 23.5 -3t23.5 -1q21 0 38 3q-2 -23 -4 -58.5t-3.5 -80t-2.5 -96t-1 -106.5q0 -35 1 -72.5t7.5 -73.5t20.5 -68t39.5 -56.5t65 -38.5t97.5 -14q57 0 96 16t64 43.5t38.5 62.5t20 73t7.5 75.5t1 70.5zM179 816q0 19 13.5 32.5t33.5 13.5
q19 0 32.5 -13.5t13.5 -32.5q0 -20 -13.5 -33.5t-32.5 -13.5q-20 0 -33.5 13.5t-13.5 33.5zM379 816q0 19 13.5 32.5t32.5 13.5q20 0 33.5 -13.5t13.5 -32.5q0 -20 -13.5 -33.5t-33.5 -13.5q-19 0 -32.5 13.5t-13.5 33.5z" />
    <glyph glyph-name="Yacute" unicode="&#xdd;" horiz-adv-x="582" 
d="M252 281q-10 17 -28 48.5t-41 70t-48 81t-48.5 81.5t-43 71t-31.5 50q10 -2 22.5 -2.5t23.5 -0.5q14 0 27 1t26 3q45 -88 93.5 -176t101.5 -179q25 38 50.5 82t51 90t49 92.5t44.5 90.5q8 -2 17.5 -3t19.5 -1h14.5t13.5 2q-46 -71 -83 -128.5t-66 -105t-51 -87t-39 -72.5
q0 -36 0.5 -77t1 -80.5t2 -75t3.5 -60.5q-12 2 -22.5 3t-21.5 1q-22 0 -44 -3q5 54 6 128t1 153zM373 873q9 9 21 16.5t21 7.5q8 0 18 -7t10 -21q0 -16 -11.5 -26t-22.5 -17q-38 -24 -74 -47.5t-73 -47.5h-29z" />
    <glyph glyph-name="Thorn" unicode="&#xde;" horiz-adv-x="474" 
d="M52 427q0 65 -2.5 128.5t-5.5 128.5q11 -2 22 -3t23 -1q11 0 21.5 1t21.5 3q-3 -33 -5 -64.5t-2 -67.5h130q100 0 157 -41t57 -131q0 -54 -21.5 -90t-56.5 -57.5t-78.5 -30t-87.5 -8.5q-28 0 -53 1t-47 3v-62q0 -42 1 -80.5t5 -58.5q-21 3 -42 3q-12 0 -23 -1t-22 -3
q3 66 5.5 128.5t2.5 128.5v174zM125 226q16 -3 38.5 -4t45.5 -1q34 0 66 9.5t56.5 29t39.5 49t15 70.5q0 26 -8.5 52t-28 46.5t-51.5 33.5t-78 13h-95v-298z" />
    <glyph glyph-name="germandbls" unicode="&#xdf;" horiz-adv-x="518" 
d="M45 407q0 29 -0.5 55t-1.5 43q0 8 -0.5 14t-0.5 11q0 61 19 104t48.5 70t65 39.5t68.5 12.5q22 0 47.5 -8t46.5 -22.5t35 -34.5t14 -45q0 -42 -23 -75.5t-47 -60.5q-19 -20 -34.5 -41.5t-15.5 -42.5q0 -17 7.5 -30.5t20.5 -25.5t29.5 -23l34.5 -23q22 -14 44 -29
t39.5 -33.5t28.5 -41t11 -51.5q0 -32 -16 -65t-43 -59.5t-62 -43t-73 -16.5q-29 0 -53.5 6t-40.5 14q5 11 9 24.5t6 24.5q14 -17 41.5 -29.5t58.5 -12.5q22 0 42.5 8t36.5 22.5t25.5 35.5t9.5 47q0 25 -10 45.5t-26.5 38t-37 32.5t-40.5 29q-19 12 -37 25.5t-32.5 28t-23 31
t-8.5 36.5q0 26 18 50t41 49q28 29 52.5 64.5t24.5 79.5q0 43 -27.5 71t-77.5 28q-37 0 -61.5 -14t-39.5 -41t-21 -66.5t-6 -91.5v-238q0 -34 0.5 -73t1 -77.5t2 -74t3.5 -61.5q-10 2 -19.5 3t-20.5 1t-20 -1t-19 -3q2 25 3.5 60t2 73.5t1 78t0.5 74.5v125zM209 58
q0 -1 -0.5 -2t-0.5 -2l-3 6l4 -2v0z" />
    <glyph glyph-name="agrave" unicode="&#xe0;" horiz-adv-x="463" 
d="M75 423q44 33 81 45t77 12q71 0 115 -39.5t44 -105.5q0 -28 -0.5 -55.5t-1.5 -56.5t-1.5 -60.5t-0.5 -64.5q0 -13 0.5 -27t5 -26t13.5 -19.5t26 -7.5h7t9 2v-12q-11 -5 -27 -8.5t-33 -3.5q-30 0 -46.5 20.5t-19.5 49.5q-20 -20 -38.5 -35.5t-38 -25.5t-40.5 -15t-46 -5
q-24 0 -47.5 8t-42 23.5t-29.5 37.5t-11 50q0 58 38.5 90.5t100.5 43.5q52 9 83 16t47.5 15t21 18.5t4.5 26.5q0 27 -6 51t-20 42.5t-36 29t-54 10.5q-41 0 -76.5 -17.5t-53.5 -51.5h-4v45zM325 253q-16 -5 -32.5 -9t-31.5 -7q-26 -5 -53.5 -12.5t-51 -20.5t-38.5 -33.5
t-15 -51.5q0 -25 8 -44t21 -32t29.5 -19.5t34.5 -6.5q41 0 74 23t51 52zM117 661q-11 8 -22.5 18t-11.5 26q0 14 10 20.5t18 6.5q10 0 21 -6.5t21 -16.5q34 -35 69.5 -71t70.5 -71h-29z" />
    <glyph glyph-name="aacute" unicode="&#xe1;" horiz-adv-x="459" 
d="M60 423q44 33 81 45t77 12q71 0 115 -39.5t44 -105.5q0 -28 -0.5 -55.5t-1.5 -56.5t-1.5 -60.5t-0.5 -64.5q0 -13 0.5 -27t5 -26t13.5 -19.5t26 -7.5h7t9 2v-12q-11 -5 -27 -8.5t-33 -3.5q-30 0 -46.5 20.5t-19.5 49.5q-20 -20 -38.5 -35.5t-38 -25.5t-40.5 -15t-46 -5
q-24 0 -47.5 8t-42 23.5t-29.5 37.5t-11 50q0 58 38.5 90.5t100.5 43.5q52 9 83 16t47.5 15t21 18.5t4.5 26.5q0 27 -6 51t-20 42.5t-36 29t-54 10.5q-41 0 -76.5 -17.5t-53.5 -51.5h-4v45zM310 253q-16 -5 -32.5 -9t-31.5 -7q-26 -5 -53.5 -12.5t-51 -20.5t-38.5 -33.5
t-15 -51.5q0 -25 8 -44t21 -32t29.5 -19.5t34.5 -6.5q41 0 74 23t51 52zM305 709q10 10 21 16.5t21 6.5q8 0 18 -6.5t10 -20.5q0 -16 -11.5 -26t-22.5 -18q-38 -23 -74 -46.5t-73 -47.5h-29z" />
    <glyph glyph-name="acircumflex" unicode="&#xe2;" horiz-adv-x="466" 
d="M70 423q44 33 81 45t77 12q71 0 115 -39.5t44 -105.5q0 -28 -0.5 -55.5t-1.5 -56.5t-1.5 -60.5t-0.5 -64.5q0 -13 0.5 -27t5 -26t13.5 -19.5t26 -7.5h7t9 2v-12q-11 -5 -27 -8.5t-33 -3.5q-30 0 -46.5 20.5t-19.5 49.5q-20 -20 -38.5 -35.5t-38 -25.5t-40.5 -15t-46 -5
q-24 0 -47.5 8t-42 23.5t-29.5 37.5t-11 50q0 58 38.5 90.5t100.5 43.5q52 9 83 16t47.5 15t21 18.5t4.5 26.5q0 27 -6 51t-20 42.5t-36 29t-54 10.5q-41 0 -76.5 -17.5t-53.5 -51.5h-4v45zM320 253q-16 -5 -32.5 -9t-31.5 -7q-26 -5 -53.5 -12.5t-51 -20.5t-38.5 -33.5
t-15 -51.5q0 -25 8 -44t21 -32t29.5 -19.5t34.5 -6.5q41 0 74 23t51 52zM231 676q-30 -27 -61.5 -54.5t-61.5 -54.5h-25q31 42 58 80t59 79h62q31 -40 59.5 -79t58.5 -80h-25z" />
    <glyph glyph-name="atilde" unicode="&#xe3;" horiz-adv-x="473" 
d="M74 423q44 33 81 45t77 12q71 0 115 -39.5t44 -105.5q0 -28 -0.5 -55.5t-1.5 -56.5t-1.5 -60.5t-0.5 -64.5q0 -13 0.5 -27t5 -26t13.5 -19.5t26 -7.5h7t9 2v-12q-11 -5 -27 -8.5t-33 -3.5q-30 0 -46.5 20.5t-19.5 49.5q-20 -20 -38.5 -35.5t-38 -25.5t-40.5 -15t-46 -5
q-24 0 -47.5 8t-42 23.5t-29.5 37.5t-11 50q0 58 38.5 90.5t100.5 43.5q52 9 83 16t47.5 15t21 18.5t4.5 26.5q0 27 -6 51t-20 42.5t-36 29t-54 10.5q-41 0 -76.5 -17.5t-53.5 -51.5h-4v45zM324 253q-16 -5 -32.5 -9t-31.5 -7q-26 -5 -53.5 -12.5t-51 -20.5t-38.5 -33.5
t-15 -51.5q0 -25 8 -44t21 -32t29.5 -19.5t34.5 -6.5q41 0 74 23t51 52zM75 592q3 17 10.5 34t19.5 30.5t29 22t40 8.5q17 0 31.5 -4.5t40.5 -18.5q30 -14 43 -19t26 -5q20 0 37 17.5t25 33.5h19q-3 -13 -9.5 -30t-18.5 -32.5t-30.5 -26t-45.5 -10.5q-28 0 -71 23
q-29 15 -42.5 19.5t-25.5 4.5q-25 0 -37 -10.5t-21 -36.5h-20z" />
    <glyph glyph-name="adieresis" unicode="&#xe4;" horiz-adv-x="471" 
d="M73 423q44 33 81 45t77 12q71 0 115 -39.5t44 -105.5q0 -28 -0.5 -55.5t-1.5 -56.5t-1.5 -60.5t-0.5 -64.5q0 -13 0.5 -27t5 -26t13.5 -19.5t26 -7.5h7t9 2v-12q-11 -5 -27 -8.5t-33 -3.5q-30 0 -46.5 20.5t-19.5 49.5q-20 -20 -38.5 -35.5t-38 -25.5t-40.5 -15t-46 -5
q-24 0 -47.5 8t-42 23.5t-29.5 37.5t-11 50q0 58 38.5 90.5t100.5 43.5q52 9 83 16t47.5 15t21 18.5t4.5 26.5q0 27 -6 51t-20 42.5t-36 29t-54 10.5q-41 0 -76.5 -17.5t-53.5 -51.5h-4v45zM323 253q-16 -5 -32.5 -9t-31.5 -7q-26 -5 -53.5 -12.5t-51 -20.5t-38.5 -33.5
t-15 -51.5q0 -25 8 -44t21 -32t29.5 -19.5t34.5 -6.5q41 0 74 23t51 52zM288 641q0 20 13.5 33.5t32.5 13.5q20 0 33.5 -13.5t13.5 -33.5q0 -19 -13.5 -33t-33.5 -14q-19 0 -32.5 14t-13.5 33zM88 641q0 20 13.5 33.5t33.5 13.5q19 0 32.5 -13.5t13.5 -33.5q0 -19 -13.5 -33
t-32.5 -14q-20 0 -33.5 14t-13.5 33z" />
    <glyph glyph-name="aring" unicode="&#xe5;" horiz-adv-x="465" 
d="M70 423q44 33 81 45t77 12q71 0 115 -39.5t44 -105.5q0 -28 -0.5 -55.5t-1.5 -56.5t-1.5 -60.5t-0.5 -64.5q0 -13 0.5 -27t5 -26t13.5 -19.5t26 -7.5h7t9 2v-12q-11 -5 -27 -8.5t-33 -3.5q-30 0 -46.5 20.5t-19.5 49.5q-20 -20 -38.5 -35.5t-38 -25.5t-40.5 -15t-46 -5
q-24 0 -47.5 8t-42 23.5t-29.5 37.5t-11 50q0 58 38.5 90.5t100.5 43.5q52 9 83 16t47.5 15t21 18.5t4.5 26.5q0 27 -6 51t-20 42.5t-36 29t-54 10.5q-41 0 -76.5 -17.5t-53.5 -51.5h-4v45zM320 253q-16 -5 -32.5 -9t-31.5 -7q-26 -5 -53.5 -12.5t-51 -20.5t-38.5 -33.5
t-15 -51.5q0 -25 8 -44t21 -32t29.5 -19.5t34.5 -6.5q41 0 74 23t51 52zM133 649q0 20 7.5 38t21 31.5t31.5 21.5t39 8q20 0 38 -8t31.5 -21.5t21 -31.5t7.5 -38t-7.5 -37.5t-21 -31t-31.5 -21.5t-39 -8q-20 0 -38 8t-31.5 21.5t-21 31t-7.5 37.5zM165 649q0 -27 19 -46.5
t47 -19.5t47.5 19.5t19.5 46.5q0 28 -19.5 47t-46.5 19q-29 0 -48 -19t-19 -47z" />
    <glyph glyph-name="ae" unicode="&#xe6;" horiz-adv-x="784" 
d="M80 423q44 33 81 45t77 12q16 0 35 -3t39.5 -11.5t40 -24t37.5 -40.5q27 36 66.5 57.5t87.5 21.5q52 0 90.5 -16t64 -43.5t38 -64.5t12.5 -78v-17t-1 -18q-14 0 -35.5 0.5t-34.5 0.5q-72 3 -143 3q-20 0 -44 -0.5t-44 -2.5q-11 0 -25 -0.5t-25 -0.5q-1 -8 -1 -16.5v-16.5
q0 -41 12 -76t35 -61t56.5 -41t77.5 -15q40 0 81.5 20t69.5 49q-2 -11 -2.5 -20.5t-2.5 -20.5q-30 -24 -74.5 -42t-90.5 -18q-71 0 -125.5 33t-82.5 97q-9 -24 -23.5 -47.5t-36.5 -42t-53 -29.5t-72 -11q-24 0 -47.5 8t-42 23.5t-29.5 37.5t-11 50q0 58 38.5 90.5
t100.5 43.5q52 9 83 16t47.5 15t21 18.5t4.5 26.5q0 27 -6 51t-20 42.5t-36.5 29t-54.5 10.5q-40 0 -75.5 -17.5t-53.5 -51.5h-4v45zM546 458q-38 0 -65 -18t-44.5 -46t-26.5 -60.5t-11 -61.5q8 0 22.5 -0.5t22.5 -0.5q23 -1 46.5 -1.5t45.5 -0.5q20 0 46.5 0.5t47.5 1.5
q11 0 23.5 0.5t22.5 0.5q0 28 -5 61t-19 60.5t-39.5 46t-66.5 18.5zM108 119q0 -46 27.5 -74t72.5 -28q21 0 42 7t37.5 21.5t27.5 35.5t13 49q1 17 1 34.5v34.5q0 11 0.5 26.5t0.5 27.5q-16 -5 -33 -9t-31 -7q-26 -5 -53.5 -12.5t-51 -20.5t-38.5 -33.5t-15 -51.5zM728 86
q0 2 0.5 3t0.5 3l1 -5h-1z" />
    <glyph glyph-name="ccedilla" unicode="&#xe7;" horiz-adv-x="473" 
d="M181 -190q12 -4 31 -7t40 -3q28 0 47 12.5t19 35.5q0 25 -16.5 35t-40.5 10q-31 0 -41 -5q-1 0 -1 1l-1 1l35 96q-41 3 -81 18.5t-71.5 45.5t-51 75t-19.5 107q0 65 22 112t57.5 77t81 44.5t93.5 14.5q52 0 94.5 -12t62.5 -29q-13 -25 -20 -61l-2 -2q-8 13 -20.5 27.5
t-29 26.5t-37.5 20t-45 8q-48 0 -81.5 -17t-55 -47.5t-31.5 -71.5t-10 -89q0 -107 46.5 -161.5t134.5 -54.5q40 0 81 19.5t69 48.5q-2 -10 -2.5 -20.5t-1.5 -20.5q-28 -23 -70 -39.5t-86 -18.5l-27 -74q22 9 39 9q38 0 58.5 -18.5t20.5 -48.5q0 -20 -9.5 -35.5t-25.5 -25.5
t-37 -15t-44 -5q-26 0 -47.5 5t-35.5 10zM442 87l-2 -2q1 2 1 3.5t1 3.5l1 -5h-1v0z" />
    <glyph glyph-name="egrave" unicode="&#xe8;" horiz-adv-x="475" 
d="M27 218q0 121 58.5 191.5t168.5 70.5q52 0 90.5 -16t64 -43.5t38 -64.5t12.5 -78v-17t-1 -18q-14 0 -35.5 0.5t-34.5 0.5q-72 3 -143 3q-20 0 -44 -0.5t-44 -2.5q-11 0 -25 -0.5t-25 -0.5q-1 -8 -1 -16.5v-16.5q0 -41 12 -76t35 -61t56.5 -41t77.5 -15q40 0 81.5 20
t69.5 49q-2 -11 -2.5 -20.5t-2.5 -20.5q-30 -24 -74.5 -42t-90.5 -18q-54 0 -98 18t-76 49t-49.5 73.5t-17.5 92.5zM256 458q-38 0 -65 -18t-44.5 -46t-26.5 -60.5t-11 -61.5q8 0 22.5 -0.5t22.5 -0.5q23 -1 46.5 -1.5t45.5 -0.5q20 0 46.5 0.5t47.5 1.5q11 0 23.5 0.5
t22.5 0.5q0 28 -5 61t-19 60.5t-39.5 46t-66.5 18.5zM137 661q-11 8 -22.5 18t-11.5 26q0 14 10 20.5t18 6.5q11 0 21.5 -6.5t20.5 -16.5q35 -35 70 -71t70 -71h-28zM438 86q0 2 0.5 3t0.5 3l1 -5h-1z" />
    <glyph glyph-name="eacute" unicode="&#xe9;" horiz-adv-x="477" 
d="M16 218q0 121 58.5 191.5t168.5 70.5q52 0 90.5 -16t64 -43.5t38 -64.5t12.5 -78v-17t-1 -18q-14 0 -35.5 0.5t-34.5 0.5q-72 3 -143 3q-20 0 -44 -0.5t-44 -2.5q-11 0 -25 -0.5t-25 -0.5q-1 -8 -1 -16.5v-16.5q0 -41 12 -76t35 -61t56.5 -41t77.5 -15q40 0 81.5 20
t69.5 49q-2 -11 -2.5 -20.5t-2.5 -20.5q-30 -24 -74.5 -42t-90.5 -18q-54 0 -98 18t-76 49t-49.5 73.5t-17.5 92.5zM245 458q-38 0 -65 -18t-44.5 -46t-26.5 -60.5t-11 -61.5q8 0 22.5 -0.5t22.5 -0.5q23 -1 46.5 -1.5t45.5 -0.5q20 0 46.5 0.5t47.5 1.5q11 0 23.5 0.5
t22.5 0.5q0 28 -5 61t-19 60.5t-39.5 46t-66.5 18.5zM329 709q11 10 21.5 16.5t20.5 6.5q8 0 18 -6.5t10 -20.5q0 -16 -11.5 -26t-22.5 -18q-38 -23 -73.5 -46.5t-73.5 -47.5h-29zM427 86q0 2 0.5 3t0.5 3l1 -5h-1z" />
    <glyph glyph-name="ecircumflex" unicode="&#xea;" horiz-adv-x="481" 
d="M24 218q0 121 58.5 191.5t168.5 70.5q52 0 90.5 -16t64 -43.5t38 -64.5t12.5 -78v-17t-1 -18q-14 0 -35.5 0.5t-34.5 0.5q-72 3 -143 3q-20 0 -44 -0.5t-44 -2.5q-11 0 -25 -0.5t-25 -0.5q-1 -8 -1 -16.5v-16.5q0 -41 12 -76t35 -61t56.5 -41t77.5 -15q40 0 81.5 20
t69.5 49q-2 -11 -2.5 -20.5t-2.5 -20.5q-30 -24 -74.5 -42t-90.5 -18q-54 0 -98 18t-76 49t-49.5 73.5t-17.5 92.5zM253 458q-38 0 -65 -18t-44.5 -46t-26.5 -60.5t-11 -61.5q8 0 22.5 -0.5t22.5 -0.5q23 -1 46.5 -1.5t45.5 -0.5q20 0 46.5 0.5t47.5 1.5q11 0 23.5 0.5
t22.5 0.5q0 28 -5 61t-19 60.5t-39.5 46t-66.5 18.5zM253 676q-29 -27 -61 -54.5t-62 -54.5h-25q32 42 58.5 80t58.5 79h63q30 -40 58.5 -79t58.5 -80h-25zM435 86q0 2 0.5 3t0.5 3l1 -5h-1z" />
    <glyph glyph-name="edieresis" unicode="&#xeb;" horiz-adv-x="488" 
d="M27 218q0 121 58.5 191.5t168.5 70.5q52 0 90.5 -16t64 -43.5t38 -64.5t12.5 -78v-17t-1 -18q-14 0 -35.5 0.5t-34.5 0.5q-72 3 -143 3q-20 0 -44 -0.5t-44 -2.5q-11 0 -25 -0.5t-25 -0.5q-1 -8 -1 -16.5v-16.5q0 -41 12 -76t35 -61t56.5 -41t77.5 -15q40 0 81.5 20
t69.5 49q-2 -11 -2.5 -20.5t-2.5 -20.5q-30 -24 -74.5 -42t-90.5 -18q-54 0 -98 18t-76 49t-49.5 73.5t-17.5 92.5zM256 458q-38 0 -65 -18t-44.5 -46t-26.5 -60.5t-11 -61.5q8 0 22.5 -0.5t22.5 -0.5q23 -1 46.5 -1.5t45.5 -0.5q20 0 46.5 0.5t47.5 1.5q11 0 23.5 0.5
t22.5 0.5q0 28 -5 61t-19 60.5t-39.5 46t-66.5 18.5zM310 641q0 20 13.5 33.5t33.5 13.5q19 0 32.5 -13.5t13.5 -33.5q0 -19 -13.5 -33t-32.5 -14q-20 0 -33.5 14t-13.5 33zM110 641q0 20 13.5 33.5t33.5 13.5q19 0 32.5 -13.5t13.5 -33.5q0 -19 -13.5 -33t-32.5 -14
q-20 0 -33.5 14t-13.5 33zM438 86q0 2 0.5 3t0.5 3l1 -5h-1z" />
    <glyph glyph-name="igrave" unicode="&#xec;" horiz-adv-x="251" 
d="M132 285q0 45 -1.5 93t-5.5 91q10 -2 19.5 -3t20.5 -1t20 1t19 3q-4 -43 -5.5 -91t-1.5 -93v-105q0 -45 1.5 -93t5.5 -91q-10 2 -19 3t-20 1t-20.5 -1t-19.5 -3q4 43 5.5 91t1.5 93v105zM46 661q-11 8 -22.5 18t-11.5 26q0 14 10 20.5t18 6.5q10 0 20.5 -6.5t21.5 -16.5
q34 -35 69.5 -71t70.5 -71h-29z" />
    <glyph glyph-name="iacute" unicode="&#xed;" horiz-adv-x="251" 
d="M52 285q0 45 -1.5 93t-5.5 91q10 -2 19 -3t20 -1t20.5 1t19.5 3q-4 -43 -5.5 -91t-1.5 -93v-105q0 -45 1.5 -93t5.5 -91q-10 2 -19.5 3t-20.5 1t-20 -1t-19 -3q4 43 5.5 91t1.5 93v105zM169 709q10 10 20.5 16.5t20.5 6.5q8 0 18.5 -6.5t10.5 -20.5q0 -16 -12 -26
t-23 -18q-38 -23 -73.5 -46.5t-73.5 -47.5h-28z" />
    <glyph glyph-name="icircumflex" unicode="&#xee;" horiz-adv-x="333" 
d="M134 285q0 45 -1.5 93t-6.5 91q11 -2 20 -3t20 -1t20 1t20 3q-5 -43 -6.5 -91t-1.5 -93v-105q0 -45 1.5 -93t6.5 -91q-11 2 -20 3t-20 1t-20 -1t-20 -3q5 43 6.5 91t1.5 93v105zM166 676q-30 -27 -61.5 -54.5t-61.5 -54.5h-25q31 42 58 80t59 79h62q31 -40 59.5 -79
t58.5 -80h-25z" />
    <glyph glyph-name="idieresis" unicode="&#xef;" horiz-adv-x="330" 
d="M132 285q0 45 -1.5 93t-6.5 91q11 -2 20 -3t20 -1t20 1t20 3q-5 -43 -6.5 -91t-1.5 -93v-105q0 -45 1.5 -93t6.5 -91q-11 2 -20 3t-20 1t-20 -1t-20 -3q5 43 6.5 91t1.5 93v105zM18 641q0 20 13.5 33.5t33.5 13.5q19 0 32.5 -13.5t13.5 -33.5q0 -19 -13.5 -33t-32.5 -14
q-20 0 -33.5 14t-13.5 33zM218 641q0 20 13.5 33.5t32.5 13.5q20 0 33.5 -13.5t13.5 -33.5q0 -19 -13.5 -33t-33.5 -14q-19 0 -32.5 14t-13.5 33z" />
    <glyph glyph-name="eth" unicode="&#xf0;" horiz-adv-x="537" 
d="M32 232q0 68 21.5 115t55.5 76.5t77 43t87 13.5q12 0 24 -1.5t26 -6.5l6 7q-31 37 -63.5 71.5t-69.5 68.5q-32 -11 -64.5 -22t-66.5 -23q-5 8 -7.5 14.5t-6.5 12.5q30 8 62.5 17t65.5 19q-29 26 -60 52t-63 52q17 5 29.5 7t29.5 7q36 -26 68.5 -51t61.5 -48q35 11 66 22
t59 22q5 -11 16 -25q-32 -8 -62.5 -17t-59.5 -18q66 -56 113.5 -107.5t77.5 -101.5t44.5 -99t14.5 -100q0 -68 -21.5 -115t-55.5 -76t-77.5 -42.5t-86.5 -13.5q-44 0 -87 13.5t-77 42.5t-55.5 76t-21.5 115zM435 232q0 44 -8 84.5t-26.5 72t-50 50.5t-77.5 19q-47 0 -78 -19
t-49.5 -50.5t-26.5 -72t-8 -84.5t8 -84.5t26.5 -71.5t49.5 -50t78 -19q46 0 77.5 19t50 50t26.5 71.5t8 84.5z" />
    <glyph glyph-name="ntilde" unicode="&#xf1;" horiz-adv-x="472" 
d="M367 278q0 77 -31.5 118t-84.5 41q-73 0 -107.5 -45t-34.5 -126v-86q0 -45 1.5 -93t5.5 -91q-10 2 -19 3t-20 1t-20.5 -1t-19.5 -3q4 43 5.5 91t1.5 93v105q0 45 -1.5 93t-5.5 91q10 -2 19.5 -3t20.5 -1q7 0 15.5 1t18.5 3q-2 -21 -2 -46v-46q34 49 75 76t95 27
q27 0 55 -8t50.5 -27.5t37 -52.5t14.5 -84q0 -20 -0.5 -41t-1.5 -44q-1 -24 -1.5 -50t-0.5 -52v-63t2 -62q-9 2 -18.5 3t-19.5 1t-19 -1t-17 -3q1 19 1.5 38.5t1.5 37.5q2 36 3 71t1 73v62v0zM76 592q3 17 10.5 34t19.5 30.5t29 22t40 8.5q17 0 31.5 -4.5t40.5 -18.5
q30 -14 43 -19t26 -5q21 0 37.5 17.5t24.5 33.5h19q-3 -13 -9.5 -30t-18.5 -32.5t-30.5 -26t-45.5 -10.5q-28 0 -71 23q-29 15 -42.5 19.5t-25.5 4.5q-25 0 -37 -10.5t-21 -36.5h-20z" />
    <glyph glyph-name="ograve" unicode="&#xf2;" horiz-adv-x="528" 
d="M28 232q0 68 21.5 115t55.5 76.5t77 43t87 13.5q43 0 86.5 -13.5t77.5 -43t55.5 -76.5t21.5 -115t-21.5 -115t-55.5 -76t-77.5 -42.5t-86.5 -13.5q-44 0 -87 13.5t-77 42.5t-55.5 76t-21.5 115zM107 232q0 -44 8 -84.5t26.5 -71.5t49.5 -50t78 -19q46 0 77.5 19t50 50
t26.5 71.5t8 84.5t-8 84.5t-26.5 72t-50 50.5t-77.5 19q-47 0 -78 -19t-49.5 -50.5t-26.5 -72t-8 -84.5zM150 661q-11 8 -22.5 18t-11.5 26q0 14 10 20.5t18 6.5q10 0 21 -6.5t21 -16.5q34 -35 69.5 -71t70.5 -71h-29z" />
    <glyph glyph-name="oacute" unicode="&#xf3;" horiz-adv-x="527" 
d="M17 232q0 68 21.5 115t55.5 76.5t77 43t87 13.5q43 0 86.5 -13.5t77.5 -43t55.5 -76.5t21.5 -115t-21.5 -115t-55.5 -76t-77.5 -42.5t-86.5 -13.5q-44 0 -87 13.5t-77 42.5t-55.5 76t-21.5 115zM96 232q0 -44 8 -84.5t26.5 -71.5t49.5 -50t78 -19q46 0 77.5 19t50 50
t26.5 71.5t8 84.5t-8 84.5t-26.5 72t-50 50.5t-77.5 19q-47 0 -78 -19t-49.5 -50.5t-26.5 -72t-8 -84.5zM342 709q10 10 21 16.5t21 6.5q8 0 18 -6.5t10 -20.5q0 -16 -11.5 -26t-22.5 -18q-38 -23 -74 -46.5t-73 -47.5h-29z" />
    <glyph glyph-name="ocircumflex" unicode="&#xf4;" horiz-adv-x="532" 
d="M25 232q0 68 21.5 115t55.5 76.5t77 43t87 13.5q43 0 86.5 -13.5t77.5 -43t55.5 -76.5t21.5 -115t-21.5 -115t-55.5 -76t-77.5 -42.5t-86.5 -13.5q-44 0 -87 13.5t-77 42.5t-55.5 76t-21.5 115zM104 232q0 -44 8 -84.5t26.5 -71.5t49.5 -50t78 -19q46 0 77.5 19t50 50
t26.5 71.5t8 84.5t-8 84.5t-26.5 72t-50 50.5t-77.5 19q-47 0 -78 -19t-49.5 -50.5t-26.5 -72t-8 -84.5zM266 676q-30 -27 -61.5 -54.5t-61.5 -54.5h-25q31 42 58 80t59 79h62q31 -40 59.5 -79t58.5 -80h-25z" />
    <glyph glyph-name="otilde" unicode="&#xf5;" horiz-adv-x="537" 
d="M27 232q0 68 21.5 115t55.5 76.5t77 43t87 13.5q43 0 86.5 -13.5t77.5 -43t55.5 -76.5t21.5 -115t-21.5 -115t-55.5 -76t-77.5 -42.5t-86.5 -13.5q-44 0 -87 13.5t-77 42.5t-55.5 76t-21.5 115zM106 232q0 -44 8 -84.5t26.5 -71.5t49.5 -50t78 -19q46 0 77.5 19t50 50
t26.5 71.5t8 84.5t-8 84.5t-26.5 72t-50 50.5t-77.5 19q-47 0 -78 -19t-49.5 -50.5t-26.5 -72t-8 -84.5zM108 592q3 17 10.5 34t19.5 30.5t29 22t40 8.5q17 0 31.5 -4.5t40.5 -18.5q30 -14 43 -19t26 -5q21 0 37.5 17.5t24.5 33.5h19q-3 -13 -9.5 -30t-18.5 -32.5t-30.5 -26
t-45.5 -10.5q-28 0 -71 23q-29 15 -42.5 19.5t-25.5 4.5q-25 0 -37 -10.5t-21 -36.5h-20z" />
    <glyph glyph-name="odieresis" unicode="&#xf6;" horiz-adv-x="537" 
d="M27 232q0 68 21.5 115t55.5 76.5t77 43t87 13.5q43 0 86.5 -13.5t77.5 -43t55.5 -76.5t21.5 -115t-21.5 -115t-55.5 -76t-77.5 -42.5t-86.5 -13.5q-44 0 -87 13.5t-77 42.5t-55.5 76t-21.5 115zM106 232q0 -44 8 -84.5t26.5 -71.5t49.5 -50t78 -19q46 0 77.5 19t50 50
t26.5 71.5t8 84.5t-8 84.5t-26.5 72t-50 50.5t-77.5 19q-47 0 -78 -19t-49.5 -50.5t-26.5 -72t-8 -84.5zM322 641q0 20 13.5 33.5t32.5 13.5q20 0 33.5 -13.5t13.5 -33.5q0 -19 -13.5 -33t-33.5 -14q-19 0 -32.5 14t-13.5 33zM122 641q0 20 13.5 33.5t33.5 13.5
q19 0 32.5 -13.5t13.5 -33.5q0 -19 -13.5 -33t-32.5 -14q-20 0 -33.5 14t-13.5 33z" />
    <glyph glyph-name="divide" unicode="&#xf7;" horiz-adv-x="516" 
d="M6 273h504v-43h-504v43zM205 53q0 21 16 37t37 16t37 -16t16 -37q0 -22 -16 -37.5t-37 -15.5t-37 15.5t-16 37.5zM205 450q0 22 16 37.5t37 15.5t37 -15.5t16 -37.5q0 -21 -16 -36.5t-37 -15.5t-37 15.5t-16 36.5z" />
    <glyph glyph-name="oslash" unicode="&#xf8;" horiz-adv-x="581" 
d="M55 232q0 68 21.5 115t55.5 76.5t77 43t87 13.5q40 0 81 -12t77 -39q22 23 41 45.5t29 36.5q5 -5 7.5 -8.5t9.5 -6.5q-14 -11 -33 -31.5t-41 -45.5q32 -34 51.5 -78t19.5 -109q0 -68 -21.5 -115t-56 -76t-78 -42.5t-86.5 -13.5q-42 0 -85.5 13.5t-78.5 42.5
q-23 -25 -43 -48t-32 -38q-5 5 -7.5 8.5t-9.5 6.5q13 12 35.5 35.5t42.5 48.5q-29 32 -46 75t-17 103zM166 80q20 -33 51.5 -53t78.5 -20q46 0 77.5 19t50 50t26.5 71.5t8 84.5q0 37 -6.5 74.5t-22.5 69.5zM421 391q-18 30 -50 48.5t-75 18.5q-47 0 -78 -19t-49.5 -50.5
t-26.5 -72t-8 -84.5q0 -35 5.5 -69.5t17.5 -66.5z" />
    <glyph glyph-name="ugrave" unicode="&#xf9;" horiz-adv-x="457" 
d="M35 146q0 29 0.5 53t1.5 45q1 19 1 35.5v33.5q0 35 -0.5 74.5t-1.5 81.5q9 -2 19 -3t19 -1t17.5 1t17.5 3q-5 -60 -7 -130.5t-2 -145.5q0 -54 9.5 -82.5t23.5 -43.5q15 -17 37.5 -28.5t53.5 -11.5q45 0 74.5 19.5t43.5 48.5q7 16 11.5 29t6.5 33.5t2.5 55.5t0.5 95v83
t-2 78q9 -2 17.5 -3t19.5 -1t20 1t17 3q-2 -40 -3.5 -77t-2.5 -74t-1 -74.5v-77.5q0 -44 0.5 -86t2.5 -84q-8 2 -17 3t-17 1q-17 0 -33 -3q2 22 1.5 49.5t-0.5 48.5q-32 -54 -75 -82t-91 -28q-77 0 -120.5 42t-43.5 119zM116 661q-11 8 -22.5 18t-11.5 26q0 14 10 20.5
t18 6.5q10 0 21 -6.5t21 -16.5q34 -35 69.5 -71t70.5 -71h-29z" />
    <glyph glyph-name="uacute" unicode="&#xfa;" horiz-adv-x="457" 
d="M21 146q0 29 0.5 53t1.5 45q1 19 1 35.5v33.5q0 35 -0.5 74.5t-1.5 81.5q9 -2 19 -3t19 -1t17.5 1t17.5 3q-5 -60 -7 -130.5t-2 -145.5q0 -54 9.5 -82.5t23.5 -43.5q15 -17 37.5 -28.5t53.5 -11.5q45 0 74.5 19.5t43.5 48.5q7 16 11.5 29t6.5 33.5t2.5 55.5t0.5 95v83
t-2 78q9 -2 17.5 -3t19.5 -1t20 1t17 3q-2 -40 -3.5 -77t-2.5 -74t-1 -74.5v-77.5q0 -44 0.5 -86t2.5 -84q-8 2 -17 3t-17 1q-17 0 -33 -3q2 22 1.5 49.5t-0.5 48.5q-32 -54 -75 -82t-91 -28q-77 0 -120.5 42t-43.5 119zM305 709q10 10 21 16.5t21 6.5q8 0 18 -6.5t10 -20.5
q0 -16 -11.5 -26t-22.5 -18q-38 -23 -74 -46.5t-73 -47.5h-29z" />
    <glyph glyph-name="ucircumflex" unicode="&#xfb;" horiz-adv-x="465" 
d="M32 146q0 29 0.5 53t1.5 45q1 19 1 35.5v33.5q0 35 -0.5 74.5t-1.5 81.5q9 -2 19 -3t19 -1t17.5 1t17.5 3q-5 -60 -7 -130.5t-2 -145.5q0 -54 9.5 -82.5t23.5 -43.5q15 -17 37.5 -28.5t53.5 -11.5q45 0 74.5 19.5t43.5 48.5q7 16 11.5 29t6.5 33.5t2.5 55.5t0.5 95v83
t-2 78q9 -2 17.5 -3t19.5 -1t20 1t17 3q-2 -40 -3.5 -77t-2.5 -74t-1 -74.5v-77.5q0 -44 0.5 -86t2.5 -84q-8 2 -17 3t-17 1q-17 0 -33 -3q2 22 1.5 49.5t-0.5 48.5q-32 -54 -75 -82t-91 -28q-77 0 -120.5 42t-43.5 119zM232 676q-30 -27 -61.5 -54.5t-61.5 -54.5h-25
q31 42 58 80t59 79h62q31 -40 59.5 -79t58.5 -80h-25z" />
    <glyph glyph-name="udieresis" unicode="&#xfc;" horiz-adv-x="471" 
d="M35 146q0 29 0.5 53t1.5 45q1 19 1 35.5v33.5q0 35 -0.5 74.5t-1.5 81.5q9 -2 19 -3t19 -1t17.5 1t17.5 3q-5 -60 -7 -130.5t-2 -145.5q0 -54 9.5 -82.5t23.5 -43.5q15 -17 37.5 -28.5t53.5 -11.5q45 0 74.5 19.5t43.5 48.5q7 16 11.5 29t6.5 33.5t2.5 55.5t0.5 95v83
t-2 78q9 -2 17.5 -3t19.5 -1t20 1t17 3q-2 -40 -3.5 -77t-2.5 -74t-1 -74.5v-77.5q0 -44 0.5 -86t2.5 -84q-8 2 -17 3t-17 1q-17 0 -33 -3q2 22 1.5 49.5t-0.5 48.5q-32 -54 -75 -82t-91 -28q-77 0 -120.5 42t-43.5 119zM89 641q0 20 13.5 33.5t33.5 13.5q19 0 32.5 -13.5
t13.5 -33.5q0 -19 -13.5 -33t-32.5 -14q-20 0 -33.5 14t-13.5 33zM289 641q0 20 13.5 33.5t32.5 13.5q20 0 33.5 -13.5t13.5 -33.5q0 -19 -13.5 -33t-33.5 -14q-19 0 -32.5 14t-13.5 33z" />
    <glyph glyph-name="yacute" unicode="&#xfd;" horiz-adv-x="471" 
d="M214 -9q-11 29 -28 70.5t-36 87.5t-39 94.5t-38.5 91.5t-33.5 78t-24 55q8 -2 18 -2.5t19 -0.5q11 0 22 1t21 3q27 -85 62 -172t72 -175q4 -8 8.5 -20.5t11.5 -30.5q22 46 43.5 96.5t41.5 101.5t38 101.5t33 97.5q15 -3 30 -3h12.5t11.5 2q-13 -27 -38.5 -82.5
t-57 -125.5t-66.5 -148.5t-66.5 -151.5t-56 -134t-35.5 -96q-15 4 -32 4q-5 0 -11.5 -0.5t-11.5 -1.5q39 65 71.5 129t58.5 127v4zM321 709q10 10 21 16.5t21 6.5q8 0 18 -6.5t10 -20.5q0 -16 -11.5 -26t-22.5 -18q-38 -23 -74 -46.5t-73 -47.5h-29z" />
    <glyph glyph-name="thorn" unicode="&#xfe;" horiz-adv-x="500" 
d="M52 466q0 34 -0.5 73t-1 77.5t-2 74t-3.5 61.5q10 -2 19 -3t20 -1t20.5 1t19.5 3q-2 -26 -3.5 -60.5t-2.5 -73t-1 -78v-74.5v-93l8 -2q8 16 21.5 35t34 35.5t48.5 27.5t66 11t74 -14t64.5 -44t46 -76.5t17.5 -110.5q0 -63 -18.5 -110t-49 -78t-69 -46.5t-77.5 -15.5
q-55 0 -94 25t-62 73l-8 -2l-2 -66q0 -34 0.5 -73t1 -77.5t2 -74t3.5 -61.5q-10 2 -19.5 3t-20.5 1t-20 -1t-19 -3q2 25 3.5 60t2 73.5t1 78t0.5 74.5v451zM418 236q0 63 -13 103.5t-34 64.5t-47 33.5t-51 9.5q-43 0 -72.5 -17.5t-48 -47t-27 -69.5t-8.5 -85
q0 -107 39 -161.5t114 -54.5q37 0 65 17.5t46.5 47.5t27.5 71t9 88z" />
    <glyph glyph-name="ydieresis" unicode="&#xff;" horiz-adv-x="474" 
d="M218 -9q-11 29 -28 70.5t-36 87.5t-39 94.5t-38.5 91.5t-33.5 78t-24 55q8 -2 18 -2.5t19 -0.5q11 0 22 1t21 3q27 -85 62 -172t72 -175q4 -8 8.5 -20.5t11.5 -30.5q22 46 43.5 96.5t41.5 101.5t38 101.5t33 97.5q15 -3 30 -3h12.5t11.5 2q-13 -27 -38.5 -82.5
t-57 -125.5t-66.5 -148.5t-66.5 -151.5t-56 -134t-35.5 -96q-15 4 -32 4q-5 0 -11.5 -0.5t-11.5 -1.5q39 65 71.5 129t58.5 127v4zM95 641q0 20 13.5 33.5t33.5 13.5q19 0 32.5 -13.5t13.5 -33.5q0 -19 -13.5 -33t-32.5 -14q-20 0 -33.5 14t-13.5 33zM295 641
q0 20 13.5 33.5t32.5 13.5q20 0 33.5 -13.5t13.5 -33.5q0 -19 -13.5 -33t-33.5 -14q-19 0 -32.5 14t-13.5 33z" />
    <glyph glyph-name="breve" unicode="&#x2d8;" horiz-adv-x="342" 
d="M56 717q9 -48 35.5 -72.5t78.5 -24.5q27 0 46 6.5t32 18.5t21.5 30t15.5 42h23q0 -31 -9 -58t-26 -47.5t-42.5 -32.5t-59.5 -12t-60 12t-43 32.5t-26 47.5t-9 58h23z" />
    <glyph glyph-name="dotaccent" unicode="&#x2d9;" horiz-adv-x="164" 
d="M34 638q0 19 14 33t33 14t33 -14t14 -33t-14 -33t-33 -14t-33 14t-14 33z" />
    <glyph glyph-name="ring" unicode="&#x2da;" horiz-adv-x="266" 
d="M34 649q0 20 7.5 38t21 31.5t31.5 21.5t39 8q20 0 38 -8t31.5 -21.5t21 -31.5t7.5 -38t-7.5 -37.5t-21 -31t-31.5 -21.5t-39 -8q-20 0 -38 8t-31.5 21.5t-21 31t-7.5 37.5zM66 649q0 -27 19 -46.5t47 -19.5q29 0 48 19.5t19 46.5q0 28 -19 47t-47 19q-29 0 -48 -19
t-19 -47z" />
    <glyph glyph-name="LDO" horiz-adv-x="720" 
d="M343 162q0 -2 -1.5 -6t-1.5 -5v-7h-4v10q4 4 7 8zM288 144q4 7 4 18h15q-7 0 -7 -8q0 -25 3 -32h4q2 5 7 14h4v-14h-11q-1 0 -2.5 1t-2.5 3t-2 3h-8q0 1 -2 6t-2 9zM374 110v15q3 0 5 1.5t3 2.5v-13q2 -1 4 -2.5t6 -3.5l1 -16q-6 7 -19 16zM89 627q24 7 64 7q25 0 37 -7
q10 -7 34 -7q19 9 22 18q29 0 33 24l9 4q2 3 7 5q5 0 5 2q5 2 7.5 6.5t10.5 4.5q1 3 7 6q7 2 7 5q32 0 32 18q8 0 13 6q4 7 12 7q1 2 9.5 5t8.5 6q7 0 10 3q12 8 16 8l9 4q7 2 7 7q11 0 22 4q11 3 19 3q0 4 7 8q7 2 8 3l89 19l42 -4l15 -8q7 -3 11 -7q10 -7 31 -18l7 -42
q-42 0 -42 5q-5 0 -14 4t-11 4q0 4 -1.5 5.5t-6.5 4.5h-68q-3 -3 -7 -10q-7 0 -21 -4t-21 -4q-13 -9 -18.5 -9t-14.5 -3q-4 0 -8 -6l-6 -6q-10 -3 -8 -3h-4q-1 -3 -8.5 -5l-7.5 -2q-3 0 -5.5 -2t-6.5 -5t-6 -5q-11 0 -15 -10q-5 0 -6 -2.5t-1 -9.5q-6 0 -13.5 -3.5t-8 -3.5
t-6.5 -4.5t-14 -4.5q-2 -1 -7 -2t-8 -6q-2 -1 -4 -4q-2 -5 -3 -6q-11 0 -11 -8q-4 0 -7 -1.5t-6 -4.5l-5 -5q-15 0 -15 -11q-5 0 -13 -7v-11q-4 -3 -6.5 -4t-4.5 -5v-15q6 -7 11 -7v-48q-6 0 -11 -9v-11q-2 -2 -4 -3q-3 -2 -7 -4v-22q-6 -3 -7 -4.5t-1 -10.5q0 -11 -3 -11
l-7 -7q-9 -4 -10.5 -6t-1.5 -10q-9 -4 -15 -8t-8 -11q-11 -11 -44 -11q-17 11 -35 11q-2 3 -7 11h-15q-3 0 -9 4q-7 4 -13 4q0 11 -11 16q0 7 -4 11q-10 0 -21 -1l-11 -1q-4 0 -11 7q-3 2 -6 2v55q2 3 5 5l6 4l4 83q1 0 2.5 1t2.5 3t2 3v15q5 2 6 6t5 4q0 1 10 4.5t10 7.5
q21 7 26 7zM385 132q-4 5 -7 7q-4 1 -15 1v18q6 -6 18 -14q0 -8 4 -12zM400 132q3 -3 3 -7q-3 3 -10 7h7zM403 125h7q5 2 12 10q6 9 10 9q-1 -4 -3.5 -6t-6.5 -6v-14l6 -4t4 -4q-4 0 -10 -7v-13l7 -7h17q1 -6 4 -10q2 -6 18 -12q3 11 3 22q-9 11 -22 11v31q3 0 11 7l-6 6
q-3 2 -5 6q2 -1 12 -5q6 -2 17 -5q6 -2 19 -2v-22q3 -2 6.5 -3.5t4.5 -3.5q0 -16 4 -20h9q3 3 3 14v6q9 0 13 1.5t9 5.5q-7 8 -11 8v14q3 0 11 8v26q-3 2 -6 3.5t-5 5.5q0 8 -1.5 10t-9.5 5q7 0 12.5 5t6.5 5v-10q0 -8 7 -8q3 -10 4 -11.5t7 -4.5q0 -15 8 -22h3q2 2 4 8t3 6
q20 7 20 24q5 0 18 8v-58h-7q-3 -3 -3 -14q-4 -1 -14 -8q10 -7 32 -7q0 -5 -2 -6.5t-5 -6.5v-36q-4 2 -5.5 3.5t-2 3.5t-3.5 7h-20q0 -2 -2 -6q-2 -6 -2 -8q-4 0 -11 -8q7 0 11 -3v-7q-2 -2 -5 -3.5t-6 -4.5v-16q-19 0 -22 -8v-7l1 -1q0 1 -4 1q0 3 -2 8t-2 7q-18 0 -23 -8
v-7q11 -11 22 -11v-7h-7q-12 -5 -21 -7q-4 -1 -10 -1v15q7 0 7 7q0 35 -3 43h-3q-8 -8 -8 -39q-7 0 -11 -4v-14h-26l-4 -8v-38q-10 0 -24 -4q9 -7 14 -7v-18q-6 2 -6 6q0 3 -7 5h-4q-5 -2 -6 -5q-2 -4 -5 -6v18q3 0 11 7q0 57 -7 64h-4q-1 -1 -3 -2l-1 -1l4 3q-4 4 -11 4
q0 31 -7 39h-4q-6 -3 -5 -21q1 -34 1 -31v-55q0 -1 4 -3t4 -4v-7q0 -1 -3.5 -4.5t-3.5 -6.5h-29v25q0 2 -1 3l-4 2q-2 1 -5 3q-2 7 -7 16h-4q-7 -7 -7 -24q3 -2 7 -3l4 -4v-7q-5 -4 -15 -11q3 0 11 11v7q0 7 -18 7q-15 0 -18 -7v-11q0 4 -7 4q0 10 -5 15q-5 4 -16 7v16l-7 4
h-15v14q-6 8 -11 8q-4 12 -22 18v31q11 3 11 15q2 0 5.5 1.5t5.5 1.5q0 19 -4 22h-7q-3 -3 -3 -14q-5 0 -19 -8v44q4 0 7 2t4 2v38h18v-14q-5 0 -7 -4q-2 -2 -3 -4q29 0 36 8v7l-4 4l4 -4h17q0 -31 3 -35h-9l-7 -7v-15q-6 -2 -7 -3.5t-4 -10.5q-4 0 -11 -8h35v-10
q-9 -4 -13 -8q0 -11 7 -24q10 4 21 17v22h7q1 -12 3 -31h8q4 3 4 16q18 0 21 8v7l-7 7l7 4v14q3 -2 8 -3.5t7 -3.5q0 -8 1 -9.5t5 -8.5q27 0 32 11v9h-1q1 -2 5 -2q6 8 6.5 11t0.5 11q3 0 11 7v20q-7 8 -11 8q0 2 -2 4t-2 3zM617 129q2 -1 3 -2l1 -2h8q0 -3 -4 -7h-3
q-5 4 -5 11zM629 125q0 4 3 7q0 -2 -1 -3q-2 -3 -2 -4zM632 132v50q4 0 11 8v10h15l4 8v22h7v-90q-1 -2 -5 -3q-3 -2 -6 -5v-14l-14 -8q0 19 -8 22h-4zM456 -67q2 -1 3 -2l1 -2v3q-1 1 -4 1zM460 -71q4 -1 9 -8l6 -6q0 7 -7 14h-8zM468 -67q3 9 3 31h15q2 -2 3 -4q0 -4 4 -6
q2 -1 4 -1q-2 -2 -5 -3.5t-6 -3.5v-9q0 -5 -3 -5q-3 1 -6 1h-9zM414 -10q-1 -5 -1 -15v-12q0 -20 -2 -26h-4v49q3 0 7 4zM307 -89l3 -4q0 3 -1 4h-2zM310 -93q4 0 8 -3q-8 0 -8 3zM264 129q-3 0 -7 3v12l-7 7h-15v15q11 0 11 9v7q-1 3 -5.5 5t-5.5 3v10q-6 8 -11 8
q3 0 7 2.5t4 4.5v7q0 3 -4 4q-5 2 -7 4v34h8v-16l3 -7h15v-33q-8 0 -8 -8v-7q0 -3 8 -3v-24q2 -1 6 -4t5 -4v-26zM296 90q4 4 4 20h13q-2 -1 -3.5 -3t-2.5 -4v-31q-1 1 -3 2.5t-4 1.5q0 7 -4 14zM307 72l4.5 -2t6.5 -2h-8q-1 1 -1 2zM318 68q1 7 7 15v-15h-7zM531 237
q2 -2 3 -4l4 -2q2 -1 4 -1l1 -15h-18q0 8 -1.5 10t-11.5 5q0 34 -4 42h-3q-4 -2 -5 -8q-2 -6 -3 -7h-4v15h15q1 6 4 14h9v-14q8 -8 11 -8zM511 305q0 7 -6 7q-8 -7 -12 -7v14h15q0 -3 1.5 -8t1.5 -6zM300 290h-12q0 -2 -1.5 -6t-1.5 -5q-27 -7 -28 -7v25h15l7 8v14
q27 0 31 20q18 5 22 22h15q0 -29 7 -34h4q6 5 6 20q7 4 10 7v15q9 -8 11 -8h8q-1 0 7 8q0 -18 7 -22h4l3.5 7l3.5 7h15q1 -5 4 -11q1 -1 9 -3q-14 0 -14 -8v-7q4 -5 36 -5v-15h-39q-2 2 -3 8q-3 6 -4 7h-4q-2 -5 -7 -15h-4q-2 3 -7 15h-15q0 -6 -3 -15h-8q0 4 -3 15h-28
q-2 -6 -7 -15q-10 0 -20 -8z" />
    <glyph glyph-name="dotlessi" unicode="&#x131;" horiz-adv-x="173" 
d="M53 285q0 45 -1.5 93t-6.5 91q11 -2 20 -3t20 -1t20 1t20 3q-5 -43 -6.5 -91t-1.5 -93v-105q0 -45 1.5 -93t6.5 -91q-11 2 -20 3t-20 1t-20 -1t-20 -3q5 43 6.5 91t1.5 93v105z" />
    <glyph glyph-name="ogonek" unicode="&#x2db;" horiz-adv-x="220" 
d="M160 -10q-26 -24 -42 -43t-25 -33.5t-12.5 -26.5t-3.5 -22q0 -18 6.5 -30.5t17 -20t23.5 -11t27 -3.5q17 0 28 4q2 -8 4 -12t4 -11q-21 -8 -53 -8q-21 0 -41 5t-35 15t-24.5 25.5t-9.5 35.5q0 26 28.5 61t81.5 75h26z" />
    <glyph glyph-name="caron" unicode="&#x2c7;" horiz-adv-x="350" 
d="M298 726h25q-31 -41 -58.5 -79t-59.5 -80h-62q-31 42 -59 80t-58 79h25l124 -108z" />
    </font>
</defs>
</svg>
