<?xml version="1.0" standalone="no"?>
<!DOCTYPE svg PUBLIC "-//W3C//DTD SVG 1.1//EN" "http://www.w3.org/Graphics/SVG/1.1/DTD/svg11.dtd" >
<svg xmlns="http://www.w3.org/2000/svg">
<metadata>
This is a custom SVG webfont generated by Font Squirrel.
Copyright   : Copyright  LDO Fonts 2004 All rights reserved
Designer    : Luke Owens
Foundry     : LDO Fonts
</metadata>
<defs>
<font id="OregonLDOBookRegular" horiz-adv-x="360" >
<font-face units-per-em="2048" ascent="1638" descent="-410" />
<missing-glyph horiz-adv-x="569" />
<glyph unicode=" "  horiz-adv-x="569" />
<glyph unicode="&#x09;" horiz-adv-x="569" />
<glyph unicode="&#xa0;" horiz-adv-x="569" />
<glyph unicode="!" horiz-adv-x="356" d="M68 84q0 43 32.5 74.5t75.5 31.5t76 -31.5t33 -74.5q0 -45 -33 -77t-76 -32t-75.5 32t-32.5 77zM84 1337q0 51 28.5 72t63.5 21t63.5 -20.5t28.5 -72.5q0 -14 -5 -83.5t-14 -174.5l-21 -232q-11 -128 -21 -259q-4 -59 -10.5 -117.5t-10.5 -116.5h-20q-4 59 -10 115.5 t-11 118.5q-10 131 -21 259l-21 232q-9 104 -14 174t-5 84z" />
<glyph unicode="&#x22;" horiz-adv-x="591" d="M96 852v578h86v-578h-86zM406 852v578h86v-578h-86z" />
<glyph unicode="#" horiz-adv-x="905" d="M41 295q14 33 23.5 75t9.5 74h149l94 453h-151q14 35 23.5 76t9.5 74h149q14 72 25.5 122t18.5 84l11 57q4 22 7 33q8 -2 16 -2h18h25q-4 -10 -9 -27.5t-13 -49.5l-18 -85q-11 -52 -26 -132h256q14 72 25.5 122t18.5 84l12 57l6 33q8 -2 16 -2h19h24q-4 -10 -9 -27.5 t-12 -49.5l-19 -85q-11 -52 -25 -132h149q-14 -33 -23.5 -74t-9.5 -76h-149l-94 -453h151q-14 -33 -23 -74.5t-9 -74.5h-150l-13 -64l-12 -55q-20 -88 -27 -125t-11 -55h-2q-4 2 -14.5 3t-16.5 1q-10 0 -27 -4q2 10 7 27.5t12.5 51.5l19.5 87l29 133h-256 q-8 -31 -15.5 -63.5t-11.5 -55.5l-25.5 -125t-11.5 -55h-2q-4 2 -14 3t-16 1q-10 0 -27 -4q2 10 7 27.5t12.5 51.5l19.5 87t28 133h-149zM106 -6q4 0 6.5 1t6.5 1h4q-2 -4 -3 -8t-3 -8zM276 444h261l92 453h-260zM399 1348l13 10q0 -2 -1 -5t-1 -7v-3q-4 2 -6.5 2.5 t-4.5 2.5zM418 -6q4 0 6 1t6 1h4q-2 -4 -3 -8t-3 -8zM711 1348l12 10q0 -2 -1 -5t-1 -7v-3q-4 2 -6 2.5t-4 2.5z" />
<glyph unicode="$" horiz-adv-x="905" d="M37 74q16 39 23.5 75.5t13.5 88.5h10q39 -66 82 -108t87 -65.5t90 -32.5t91 -9v606q-92 37 -160.5 72.5t-113.5 79.5t-67.5 98.5t-22.5 128.5q0 147 98 244.5t266 119.5q0 41 -1 81t-9 75q10 -4 17 -4h20h20q8 0 19 4q-8 -37 -9.5 -74t-1.5 -78q70 0 120 -8t87 -21.5 t63 -29.5l46 -31q-18 -33 -28.5 -67.5t-22.5 -83.5h-9q-10 27 -28.5 57.5t-48 58t-73.5 46t-106 22.5v-551q90 -35 160 -68.5t118 -74.5t73.5 -94.5t25.5 -125.5q0 -76 -25.5 -146.5t-73.5 -126.5t-117.5 -97t-160.5 -58q0 -59 1.5 -115.5t9.5 -109.5q-10 4 -19 4h-20h-21 q-8 0 -18 -4q8 47 10 101.5t2 115.5q-18 -2 -33 -2h-34q-92 0 -173 24t-157 83zM211 1063q0 -102 56.5 -167t166.5 -105v526q-98 -16 -160.5 -86t-62.5 -168zM489 33q111 25 173.5 108.5t62.5 188.5q0 35 -7 67.5t-31.5 66.5t-71 69.5t-126.5 72.5v-573z" />
<glyph unicode="%" horiz-adv-x="1742" d="M45 1040.5q0 71.5 23.5 133t65.5 106.5t102.5 70.5t134 25.5t133 -25.5t101.5 -70.5t65.5 -106.5t23.5 -133t-23.5 -133t-65.5 -105.5t-101.5 -69.5t-133 -25.5t-134 25.5t-102.5 69.5t-65.5 105.5t-23.5 133zM178 1040.5q0 -59.5 11.5 -115t36 -97.5t60.5 -67.5 t85 -25.5t85 25.5t59.5 67.5t34.5 97.5t11 115t-11 114.5t-34.5 97t-59.5 68t-85 26t-85 -26t-60.5 -68t-36 -97t-11.5 -114.5zM451 -74l759 1493q20 -6 47 -6q8 0 14.5 1t14.5 3l-381 -748l-379 -747q-12 6 -23 7t-22 1q-20 0 -30 -4zM1049 301q0 72 23.5 133.5t65.5 105.5 t102 69.5t134 25.5t133.5 -25.5t101.5 -69.5t65.5 -105.5t23.5 -133.5t-23.5 -133.5t-65.5 -105.5t-101.5 -69.5t-133.5 -25.5t-134 25.5t-102 69.5t-65.5 105.5t-23.5 133.5zM1182 301q0 -59 11 -114.5t35.5 -97.5t60.5 -67.5t85 -25.5t85 25.5t59.5 67.5t35 97.5 t11.5 114.5t-11.5 114.5t-35 97.5t-59.5 67.5t-85 25.5t-85 -25.5t-60.5 -67.5t-35.5 -97.5t-11 -114.5z" />
<glyph unicode="&#x26;" horiz-adv-x="1312" d="M53 303q0 66 30 130.5t81 121.5t120.5 105.5t151.5 82.5q-63 92 -104 174t-41 156q0 64 22.5 119t64.5 96t99.5 64.5t124.5 23.5q117 0 190.5 -56t73.5 -167q0 -57 -27.5 -110.5t-69.5 -100.5t-93 -85t-98 -64q14 -16 28.5 -35t24.5 -35l165 -209l162 -195 q78 106 139.5 204t110.5 200q12 -18 28.5 -33.5t33.5 -27.5q-59 -94 -127 -186.5t-154 -196.5l127 -143l129 -142q-2 0 -2 -2q-2 0 -2 2q-49 6 -104 6q-23 0 -48.5 -2t-48.5 -6q-4 0 -7 -1t-7 -1q-18 29 -54 79t-83 103q-47 -47 -96.5 -86t-103.5 -66.5t-115.5 -42 t-135.5 -14.5q-78 0 -147.5 21.5t-122.5 64.5t-84 106.5t-31 147.5zM203 340q0 -59 23.5 -113.5t65.5 -95.5t99 -66.5t127 -25.5q109 0 187.5 41t154.5 117l-207 258l-194 260q-123 -72 -189.5 -156t-66.5 -219zM416 1133q0 -63 40 -151.5t99 -162.5q113 70 169 161t56 175 q0 80 -48 131t-128 51q-86 0 -137 -58t-51 -146z" />
<glyph unicode="'" horiz-adv-x="294" d="M98 852v578h86v-578h-86z" />
<glyph unicode="(" horiz-adv-x="440" d="M33 573q0 111 21.5 224.5t62.5 223t102.5 212t138.5 190.5l27 -22q-78 -100 -125 -197.5t-73.5 -198t-36 -207t-9.5 -225t9.5 -225t36 -207t73.5 -198t125 -197.5q-6 -6 -13 -11t-14 -11q-158 176 -241.5 396t-83.5 453z" />
<glyph unicode=")" horiz-adv-x="440" d="M53 -256q76 100 124 197.5t75 198t36 208t9 226t-9 225t-36 207t-75 197.5t-124 198q16 12 27 22q158 -176 242 -396t84 -454q0 -111 -22 -224t-63.5 -223t-102 -212t-138.5 -190z" />
<glyph unicode="*" horiz-adv-x="749" d="M43 1176q16 16 29.5 39.5t17.5 46.5l266 -195l-28 330q10 -2 20 -3t27 -1q14 0 26.5 1t22.5 3l-35 -332l131 98l133 99q6 -23 19.5 -47.5t29.5 -40.5l-301 -136l150 -67q82 -37 151 -72q-16 -14 -29.5 -36.5t-19.5 -45.5l-266 184q8 -76 18.5 -161.5t18.5 -161.5 q-12 4 -22.5 5t-26.5 1q-14 0 -23.5 -1t-19.5 -3l24 321l-129 -92l-129 -94q-12 53 -47 84l297 137l-151 70q-82 39 -154 70z" />
<glyph unicode="+" horiz-adv-x="1048" d="M8 471v88h473v471h86v-471h473v-88h-473v-471h-86v471h-473z" />
<glyph unicode="," d="M37 -350l156 491q6 25 24.5 48.5t56.5 23.5q23 0 44.5 -14.5t21.5 -44.5q0 -23 -7 -40.5t-18 -33.5v4q-2 -2 -1 -3t-1 -3l-128 -219l-130 -219q-12 8 -18 10z" />
<glyph unicode="-" horiz-adv-x="688" d="M94 416v108h498v-108h-498z" />
<glyph unicode="." d="M70 84q0 43 32.5 74.5t75.5 31.5t76 -31.5t33 -74.5q0 -45 -33 -77t-76 -32t-75.5 32t-32.5 77z" />
<glyph unicode="/" horiz-adv-x="684" d="M20 -41l562 1477q20 -6 47 -6q14 0 35 4l-280 -740l-282 -737q-23 6 -47 6q-15 0 -35 -4z" />
<glyph unicode="0" horiz-adv-x="1093" d="M72 672q0 143 24.5 271t80.5 224.5t146.5 152.5t223.5 56q147 0 239.5 -56t144.5 -152.5t71.5 -224.5t19.5 -271q0 -139 -27.5 -267.5t-86 -225.5t-148.5 -154.5t-213 -57.5q-147 0 -239.5 56.5t-144.5 151.5t-71.5 223.5t-19.5 273.5zM221 672q0 -141 16.5 -261 t54.5 -209t100.5 -139.5t154.5 -50.5t154.5 50.5t100.5 139.5t54 208.5t16 261.5q0 139 -16 260t-54 209t-100.5 138t-154.5 50t-154.5 -47t-100.5 -133t-54.5 -206.5t-16.5 -270.5z" />
<glyph unicode="1" horiz-adv-x="569" d="M6 1188q119 49 238 104l227 111l4 -2q-8 -135 -12 -270.5t-4 -270.5v-346q0 -135 4 -263t12 -259q-23 4 -44 6t-43.5 2t-44 -2t-44.5 -6q10 135 14 261t4 261v756l-127 -71l-127 -71q-10 14 -25.5 32t-31.5 28z" />
<glyph unicode="2" horiz-adv-x="983" d="M53 4l247 248q105 109 180 197t123 158.5t76 136t39 129t11 135.5q0 80 -19.5 138t-53 97t-77.5 57.5t-94 18.5q-68 0 -117 -23.5t-81.5 -58.5t-51 -75t-24.5 -70v-5l-64 95q63 102 152.5 148t214.5 46q80 0 149.5 -20.5t122 -64.5t83 -111.5t30.5 -161.5 q0 -70 -16.5 -129.5t-49 -117.5t-82 -116.5t-112.5 -124.5v2q-14 -14 -29.5 -31.5t-31.5 -33.5l-169 -170q-91 -92 -161 -191h219q145 0 256 4.5t197 10.5q-6 -31 -6.5 -66t6.5 -65q-111 4 -215.5 7t-215 3t-218 -3t-218.5 -7v14z" />
<glyph unicode="3" horiz-adv-x="940" d="M59 33q8 20 13.5 52t7.5 62q20 -23 48 -46t63.5 -42.5t78.5 -33t92 -13.5q80 0 144.5 27t108.5 74t69 112.5t25 145.5q0 88 -22.5 149.5t-62.5 99t-96 54.5q-54 16 -122 16q-23 0 -43.5 -2t-38.5 -6q2 10 2 29q0 20 -2 30q38 -6 82 -6q76 0 124 32t74.5 80t35.5 105.5 t9 110.5q0 70 -20.5 120t-53 82.5t-73.5 48t-84 15.5t-82 -14.5t-71 -37t-54.5 -53t-34.5 -63.5l-2 -6l-39 105q43 41 111.5 78.5t179.5 37.5q80 0 149.5 -17.5t122 -54t83 -93t30.5 -134.5q0 -74 -26.5 -131t-67.5 -99t-91.5 -68.5t-95.5 -39.5v-30q51 -4 113 -19.5 t114 -50.5t87 -94.5t35 -147.5q0 -92 -38 -171t-105.5 -136t-164 -90t-213.5 -33q-94 0 -170 21.5t-129 44.5zM74 156l12 -2q-4 -2 -3 -2t-3 -2v-3q-2 2 -3 4.5t-3 4.5z" />
<glyph unicode="4" horiz-adv-x="1040" d="M10 373v22l188 264l188 268l168 242l128 191q16 -4 33.5 -6t34.5 -2q31 0 55 6q-4 -90 -7 -197.5t-5 -223.5t-2 -235v-229q59 0 111 4t87 8q-6 -25 -6 -53.5t6 -52.5q-35 4 -87 6t-111 2v-98q0 -68 3 -143.5t7 -133.5q0 -8 1 -11t1 -9q-20 4 -39 6t-41.5 2t-41.5 -2 t-40 -6q4 59 10 139t6 158v98q-45 0 -133 -2t-185 -4l-188 -4q-92 -2 -141 -4zM145 473h512v739l-75 -103l-93 -128l-99 -140l-96 -141l-85 -127z" />
<glyph unicode="5" horiz-adv-x="944" d="M57 45v6q10 27 18.5 58.5t12.5 56.5v2q41 -78 127 -117t172 -39q63 0 123.5 23.5t105.5 73t73 124t28 175.5q0 92 -25.5 155.5t-66.5 103.5t-96.5 58t-112.5 18q-84 0 -138.5 -25.5t-76.5 -39.5q-4 2 -5 4t-6 4q14 82 16.5 168t2.5 176q0 86 -3 176t-11 162q2 2 4 3t4 3 q16 -2 44.5 -4t69.5 -6q45 -4 106.5 -6t147.5 -2q96 0 170 1t115 3l4 -4q-12 -49 -12 -109v-22q-49 8 -125 12t-158 7t-156.5 4t-123.5 1l-31 -499q47 25 99 43t145 18q88 0 160.5 -30.5t122.5 -83t78 -122t28 -145.5q0 -96 -37 -180t-104.5 -147.5t-160.5 -99.5t-206 -36 q-88 0 -172 18.5t-150 59.5z" />
<glyph unicode="6" horiz-adv-x="1005" d="M66 555q0 170 38.5 320.5t115.5 263t191 176.5q110 62 252 61h9h48q17 0 34 -4l22 -55v-4q-53 16 -104 16q-82 0 -148.5 -37t-117 -97t-87 -139t-59 -162t-34 -165t-11.5 -149q25 39 57.5 79.5t75.5 73.5t96.5 53.5t118.5 20.5q53 0 122 -16.5t130.5 -58.5t104.5 -115.5 t43 -190.5q0 -102 -32 -186t-90.5 -144.5t-142.5 -94.5t-186 -34q-88 0 -169 32t-142.5 101.5t-98 182t-36.5 272.5zM227 383q0 -82 21.5 -150.5t60.5 -117.5t91.5 -76t113.5 -27q68 0 121 27t90 76t56.5 117.5t19.5 150.5q0 80 -17.5 147.5t-51.5 116.5t-85 76t-121 27 q-63 0 -117.5 -27t-94.5 -76t-63.5 -116.5t-23.5 -147.5z" />
<glyph unicode="7" horiz-adv-x="950" d="M76 1198q6 43 6 84t-6 78q86 -6 147.5 -9t120.5 -5q31 0 80 -1.5t104.5 -2.5t110.5 -1h98q33 0 60.5 1t54.5 1h88v-20l-377 -656q-190 -339 -360 -675q-16 4 -34.5 6t-41.5 2q-12 0 -25.5 -1t-25.5 -3l204 331l203 342l183 311l139 241q-94 0 -280.5 -3.5t-448.5 -19.5z " />
<glyph unicode="8" horiz-adv-x="1034" d="M63 362q0 123 70 226.5t232 156.5v31q-39 10 -80 32.5t-74 58.5t-54.5 82t-21.5 106q0 63 26.5 121.5t77 102.5t121 70.5t156.5 26.5q100 0 173 -24.5t121 -65.5t70.5 -94t22.5 -111q0 -94 -59.5 -178t-173.5 -121v-30q37 -6 88 -25.5t98 -58.5t80 -102.5t33 -155.5 q0 -100 -36 -182.5t-97.5 -139.5t-143.5 -89t-176 -32q-96 0 -179 26.5t-143.5 77t-95.5 124t-35 167.5zM225 373q0 -80 20.5 -145.5t58.5 -113.5t91.5 -75t121 -27t120.5 27t91 75t58.5 113.5t20.5 145.5q0 78 -20.5 143.5t-58.5 113.5t-91 74.5t-120.5 26.5t-121 -26.5 t-91.5 -74.5t-58.5 -113.5t-20.5 -143.5zM285 1052.5q0 -55.5 13 -105.5t42 -88t73 -60.5t105.5 -22.5t106.5 22.5t73.5 60.5t42 88t13.5 105.5t-13.5 105.5t-42 88t-73.5 60.5t-106.5 22.5t-105.5 -22.5t-73 -60.5t-42 -88t-13 -105.5z" />
<glyph unicode="9" horiz-adv-x="1019" d="M51 942q0 92 32 171t90 137.5t142 92t187 33.5q90 0 173 -31.5t145.5 -102.5t99 -183.5t36.5 -272.5q0 -170 -41 -319.5t-117.5 -260t-188 -175t-255.5 -64.5q-47 0 -88 7.5t-65 17.5q-6 23 -17 48l-20 50q90 -78 201 -78q115 0 196.5 66.5t134 174t76 241t23.5 266.5 q-59 -98 -143.5 -159.5t-207.5 -61.5q-182 0 -287.5 105t-105.5 298zM158 96h4q0 -2 1 -3t1 -3zM213 942q0 -184 71.5 -266t194.5 -82q74 0 131.5 34t96 90t59 128t20.5 149q0 74 -20.5 135.5t-58 105.5t-91 68.5t-116.5 24.5q-127 0 -207 -104.5t-80 -282.5z" />
<glyph unicode=":" horiz-adv-x="378" d="M78 84q0 43 32.5 74.5t75.5 31.5t76 -31.5t33 -74.5q0 -45 -33 -77t-76 -32t-75.5 32t-32.5 77zM78 844q0 43 32.5 75.5t75.5 32.5t76 -32.5t33 -75.5q0 -45 -33 -77t-76 -32t-75.5 32t-32.5 77z" />
<glyph unicode=";" horiz-adv-x="393" d="M45 -350l156 491q6 25 24.5 48.5t57.5 23.5q23 0 44 -14.5t21 -44.5q0 -23 -7 -40.5t-17 -33.5v4q-2 -2 -1 -3t-1 -3l-128 -219l-131 -219q-12 8 -18 10zM150 844q0 43 31.5 75.5t74.5 32.5q45 0 77 -32.5t32 -75.5q0 -45 -32 -77t-77 -32q-43 0 -74.5 32t-31.5 77z" />
<glyph unicode="&#x3c;" horiz-adv-x="1124" d="M6 471v92l516 241l516 240v-81l-970 -447l484 -224l486 -224v-82l-516 242z" />
<glyph unicode="=" horiz-adv-x="1144" d="M90 270v86h1032v-86h-1032zM90 674v86h1032v-86h-1032z" />
<glyph unicode="&#x3e;" horiz-adv-x="1122" d="M84 -14v82l971 448l-485 223l-486 224v81l516 -242l516 -243v-92l-516 -241z" />
<glyph unicode="?" horiz-adv-x="585" d="M49 1368q41 23 87 42t116 19q72 0 127 -21.5t93 -57t57.5 -83.5t19.5 -102q0 -57 -17.5 -106t-47 -93t-66.5 -83l-74 -76q-66 -66 -116 -131.5t-50 -143.5q0 -23 7.5 -46t22.5 -42.5t37.5 -32t51.5 -12.5q18 0 34.5 4.5t28.5 8.5q-12 -18 -16 -41q-10 -4 -25.5 -6.5 t-35.5 -2.5q-25 0 -62 11.5t-70.5 38t-57 67.5t-23.5 103q0 51 16 96t43 85t61 76l70 70q33 33 62.5 66t53 66.5t38 70.5t14.5 80t-16.5 77t-44 57.5t-61.5 35.5t-66 12q-53 0 -100.5 -23.5t-84.5 -60.5zM141 84q0 43 32 74.5t77 31.5q43 0 74.5 -31.5t31.5 -74.5 q0 -45 -31.5 -77t-74.5 -32q-45 0 -77 32t-32 77zM360 412q2 8 13 14l4 -14l-8 4q-2 -2 -4.5 -2t-4.5 -2z" />
<glyph unicode="@" horiz-adv-x="1402" d="M63 692q0 121 49.5 235.5t140.5 205t221 145.5t292 55q168 0 278.5 -42t176 -109.5t93 -154.5t27.5 -177q0 -111 -35.5 -201t-92 -154.5t-125 -99.5t-134.5 -35q-82 0 -103.5 46.5t-21.5 125.5q-23 -31 -50 -61.5t-58 -55t-64.5 -40t-70.5 -15.5q-213 0 -213 267 q0 100 28.5 184t77.5 145.5t114.5 95t139.5 33.5q61 0 104.5 -30.5t49.5 -96.5h20l27 105h84l-45 -214l-31 -151l-20 -99q-8 -38 -11.5 -61.5t-4.5 -36t-1 -22.5q0 -39 22.5 -60.5t57.5 -21.5q43 0 92 31t91 86t70 131t28 164q0 104 -24.5 192.5t-83 152t-156 99 t-244.5 35.5q-127 0 -235.5 -51t-186.5 -141t-122 -211t-44 -262q0 -127 40 -221.5t110.5 -159t168 -96t211.5 -31.5q70 0 135.5 14t124 36.5t108.5 50.5t91 56q-2 -16 -2 -20t-2 -19q-27 -25 -74 -55.5t-110.5 -57t-144.5 -45t-175 -18.5q-100 0 -204.5 38t-189.5 117 t-139.5 197.5t-54.5 282.5zM479 618q0 -100 29 -151t108 -51q63 0 111.5 50t80.5 121.5t47 150.5t15 134q0 72 -26.5 119t-110.5 47q-61 0 -108 -41t-80 -103.5t-49.5 -136t-16.5 -139.5z" />
<glyph unicode="A" horiz-adv-x="1355" d="M39 -6l323 716l316 720h22l75 -180l81 -193l133 -318l130 -303l114 -259q51 -116 84 -183q-47 6 -92 6q-25 0 -52.5 -2t-50.5 -6q-12 43 -30 94l-40 108l-45 112l-44 110q-12 33 -27 67l-27 64q-68 2 -140.5 3t-139.5 1q-66 0 -132.5 -1t-129.5 -3l-62 -153 q-31 -77 -56 -148l-48 -137q-23 -66 -37 -117q-16 4 -32.5 6t-35.5 2q-30 0 -57 -6zM397 621q20 0 62.5 -1.5t66.5 -1.5q29 -2 57 -2h56q57 0 123.5 1t124.5 4l-246 567z" />
<glyph unicode="B" horiz-adv-x="1064" d="M90 -8q6 135 11 264t5 264v357q0 133 -5 263t-11 261q51 -4 104.5 -6t104.5 -2q29 0 55.5 1t55.5 3l55 4q27 2 55 2q86 0 164 -13.5t136.5 -46t93 -89t34.5 -140.5q0 -150 -95 -234.5t-249 -119.5l2 -21q182 -12 286.5 -92t104.5 -250q0 -113 -47 -190.5t-121.5 -125.5 t-166 -69.5t-179.5 -21.5q-27 0 -52 1t-50 3l-50 4q-26 2 -50 2q-47 0 -95.5 -2t-95.5 -6zM256 485q0 -70 2 -139.5t6 -140.5q2 -35 2 -75t2 -75q39 -4 96.5 -7t118.5 -3q70 0 132.5 23.5t109.5 69.5t74.5 113.5t27.5 154.5q0 92 -32.5 150t-94 92t-147.5 47.5t-193 13.5 h-104v-224zM256 764h123q74 0 147.5 15.5t131 50t93 94t35.5 149.5q0 88 -31.5 141.5t-82.5 82t-112.5 39t-123.5 10.5q-98 0 -168 -13q-2 -33 -2 -68.5t-2 -70.5q-4 -66 -6 -132.5t-2 -131.5v-166z" />
<glyph unicode="C" horiz-adv-x="1341" d="M59 696q0 174 56.5 310.5t158 230.5t242.5 143.5t311 49.5q129 0 240 -27t197 -66q-14 -31 -23 -71l-14 -74v-6q-23 25 -60 57.5t-87 61t-114.5 49t-138.5 20.5q-125 0 -231.5 -40t-185 -124t-123.5 -212t-45 -302q0 -176 45 -303t123.5 -211t185 -124t231.5 -40 q72 0 134.5 17.5t115.5 43t95 54.5l73 51l-16 -108q-20 -16 -60.5 -36t-95.5 -37t-122.5 -28.5t-143.5 -11.5q-162 0 -299 49t-236.5 143.5t-156 230.5t-56.5 310zM1245 184l2 11l2 -11l-2 2z" />
<glyph unicode="D" horiz-adv-x="1445" d="M88 1403q78 -4 152.5 -7t152.5 -3q39 0 77 1t79 3l78 4q39 2 80 2q178 0 306 -47t210 -134t120.5 -213t38.5 -284q0 -137 -32.5 -244.5t-89 -189.5t-130 -139.5t-156.5 -93t-170 -52t-169 -16.5q-35 0 -70 1t-69 3l-70 4q-35 2 -70 2q-66 0 -134 -2t-134 -6q8 135 13 263 t5 263v356q0 133 -5 264.5t-13 264.5zM256 518q0 -111 3 -226.5t9 -223.5q47 -10 124 -16.5t159 -6.5q117 0 232.5 27.5t207.5 103.5t149.5 208t57.5 341q0 184 -45 302t-125 186.5t-190.5 95t-239.5 26.5q-98 0 -182 -6t-148 -14q-6 -100 -9 -214t-3 -227v-356z" />
<glyph unicode="E" horiz-adv-x="851" d="M90 1403q94 -4 181 -7t182 -3q92 0 179 3t177 7q-2 -12 -3 -24.5t-1 -28.5q0 -14 1 -26.5t3 -25.5q-29 2 -50 5l-44 4q-43 4 -89 7t-99.5 6t-117 4t-143.5 1q0 -27 -1 -55.5t-3 -55.5q-2 -37 -3 -76.5t-1 -86.5t1 -94.5t1 -88.5v-102q92 0 165 1t133 4t109.5 6t94.5 7 q-2 -12 -3 -24t-1 -26.5t1 -26t3 -23.5q-55 4 -126 7t-142.5 5t-134 3t-99.5 1q0 -18 -1 -40.5t-1 -58.5v-87v-125q0 -119 1 -201t3 -122q68 0 144.5 1t151.5 3t142.5 7t118.5 13q-2 -12 -2 -27v-24v-25q0 -12 2 -24q-92 4 -178 7t-182 3q-94 0 -184.5 -3t-184.5 -7 q8 135 13.5 265t5.5 265v357q0 133 -5.5 264t-13.5 262z" />
<glyph unicode="F" horiz-adv-x="845" d="M90 1403q94 -4 181 -7t182 -3q92 0 183 3l202 7q-2 -12 -3 -24.5t-1 -28.5q0 -14 1 -25.5t3 -24.5q-59 6 -137 10.5t-160 7.5t-157 5t-124 2v-39q-2 -66 -3 -125t-1 -119q0 -37 1 -69.5t1 -67.5v-135q133 0 269.5 4t260.5 17q-2 -14 -3 -26.5t-1 -25t1 -25t3 -24.5 q-53 4 -117.5 7t-133.5 4l-142 2q-72 1 -137 2v-187q0 -135 5 -264t11 -262q-23 4 -46 6t-45.5 2t-46 -2t-46.5 -6l12 263q6 128 7 263v356q0 133 -7 265z" />
<glyph unicode="G" horiz-adv-x="1460" d="M59 696q0 174 57.5 310.5t162 230.5t253 143.5t330.5 49.5q188 0 317.5 -38t200.5 -75q-16 -29 -29.5 -71t-17.5 -77h-10q-33 39 -80 76t-105.5 65.5t-128 46t-147.5 17.5q-131 0 -244.5 -40t-196.5 -124t-130 -212t-47 -302q0 -156 42 -279.5t122.5 -209.5t197.5 -132 t266 -46q45 0 94.5 4t95.5 13t85 22.5t67 31.5q2 61 3.5 127t1.5 129q0 57 -2.5 119t-6.5 115q0 8 -1 17t-1 20q20 -4 44 -5t46 -1q41 0 78 6q-4 -47 -5 -142.5t-1 -263.5v-84q0 -20 1 -38.5t1 -41.5q-45 -16 -109.5 -32.5t-136 -29.5t-143.5 -22.5t-131 -9.5 q-182 0 -329.5 47t-250 139.5t-158 229.5t-55.5 317z" />
<glyph unicode="H" horiz-adv-x="1398" d="M88 -8q6 135 11 263t5 263v357q0 133 -5 263t-11 263q23 -4 45.5 -6t44.5 -2q25 0 47.5 2t44.5 6q-6 -135 -11 -263t-5 -264v-81h33q20 0 42.5 -1t44.5 -1h36q143 -6 288 -7q68 0 146 1t143 6q35 0 78 1t78 1v81q0 133 -5 263.5t-12 263.5q23 -4 45.5 -6t47.5 -2 q23 0 45 2t45 6l-11.5 -263t-5.5 -263v-357q0 -135 5.5 -264l11.5 -262q-23 4 -45.5 6t-44.5 2q-25 0 -47.5 -2t-45.5 -6l11.5 263t5.5 263v197q-111 2 -222.5 3t-222 1t-222 -1t-222.5 -3v-197q0 -135 5 -264t11 -262q-23 4 -45 6t-47 2q-23 0 -45 -2t-45 -6z" />
<glyph unicode="I" horiz-adv-x="370" d="M90 -8q6 135 11 263t5 263v356q0 133 -5 263.5t-11 263.5q23 -4 46.5 -6t46 -2t46 2t45.5 6q-6 -135 -11 -263t-5 -264v-356q0 -135 5 -264t11 -262q-23 4 -46 6t-45.5 2t-46 -2t-46.5 -6z" />
<glyph unicode="J" horiz-adv-x="585" d="M74 -537q90 4 142 47.5t79 118t34 176t7 224.5l10 846q0 133 -5 263t-11 263q23 -4 46 -6t45.5 -2t46.5 2t46 6q-8 -135 -13 -263t-5 -264v-113v-137q0 -73 -1 -152t-1 -157q0 -139 -1 -261t-1 -193q0 -90 -29 -169t-82 -137.5t-128 -93t-167 -34.5z" />
<glyph unicode="K" horiz-adv-x="1189" d="M76 -10q4 0 6 1t6 1v-12zM88 -8q8 131 13 262t5 264v357q0 133 -5 263t-13 263q23 -4 46.5 -6t46 -2t46 2t45.5 6q-6 -135 -11 -263t-5 -264v-114q0 -27 23 -27q12 0 32 19q72 63 152 141l161 163l159 173l153 172q35 -8 82 -8q16 0 31.5 1t31.5 3l-161 -148l-178 -169 l-169 -170q-80 -83 -135 -146l175 -199l175 -200l160 -185l164 -186q-27 4 -49.5 5t-46.5 1q-29 0 -56.5 -2t-54.5 -6l-166 204l-175 213l-154 182q-70 81 -101 111q-18 18 -33 19q-10 0 -15 -7t-5 -16v-180q0 -135 5 -264t11 -262q-23 4 -46 6t-45.5 2t-45 -2t-47.5 -6z " />
<glyph unicode="L" horiz-adv-x="841" d="M90 -10l12 264q6 129 7 264v356q0 133 -7 264l-12 263q23 -4 46.5 -6t46 -2t46 2t45.5 6q-6 -135 -11 -263t-5 -264q0 -186 1 -357t3 -294q0 -41 1 -82t1 -75q143 0 282.5 4t287.5 22q-6 -23 -6.5 -51.5t6.5 -48.5q-96 4 -184.5 6t-184.5 2t-187.5 -3t-187.5 -7z" />
<glyph unicode="M" horiz-adv-x="1767" d="M70 -6l55 355l55 369q27 185 49.5 365.5t40.5 346.5h17q141 -295 293 -578l311 -576q14 29 42 80l63 118l77 141l84 153l183 341l171 321h17l30 -271l27 -258l51 -457q25 -221 58 -450q-43 6 -86 6q-23 0 -44.5 -2t-43.5 -6q-23 281 -47.5 552t-57.5 539l-82 -139 l-253 -475q-124 -233 -228 -469h-2l-170 344l-180 350l-101 196l-98 195l-35 -283l-35 -301q-16 -148 -26 -281.5t-12 -225.5q-31 6 -62 6q-14 0 -31.5 -1t-29.5 -5z" />
<glyph unicode="N" horiz-adv-x="1386" d="M84 -6q4 33 9 94.5t9 138l8.5 164.5t7.5 175t5 169t2 148q0 195 -1 335t-5 212h18l42 -47l44 -48l258 -280l268 -289l250 -265l205 -212v283q0 146 -1 290t-5 281t-10 256q33 -6 59 -6q16 0 27.5 1t25.5 5q-4 -53 -10 -144.5t-10 -191.5t-7 -194.5t-3 -151.5 q0 -78 1 -191l2 -225q1 -113 2 -206t1 -132h-14l-225 257l-240 265l-248 268l-246 261l-104 114v-51q-2 -59 -4 -153.5t-2 -243.5q0 -61 1 -157.5t4 -198t5 -191.5t6 -139q-12 4 -29.5 5t-32.5 1q-32 0 -63 -6z" />
<glyph unicode="O" horiz-adv-x="1660" d="M63 696q0 174 56.5 310.5t158 230.5t241.5 143.5t310 49.5t311.5 -49.5t243 -143.5t157.5 -230.5t56 -310.5t-56 -310t-157.5 -230.5t-243 -143.5t-311.5 -49t-310 49t-241.5 143.5t-158 230.5t-56.5 310zM246 696q0 -176 45 -303t123 -211t185.5 -124t229.5 -40 q125 0 231.5 40t185.5 124t124 211t45 303q0 174 -45 302t-124 212t-185.5 124t-231.5 40q-123 0 -230 -40t-185 -124t-123 -212t-45 -302z" />
<glyph unicode="P" horiz-adv-x="1001" d="M90 1401q47 -4 95 -6t96 -2q27 0 63 2l74 4q37 2 67.5 3t53.5 1q31 0 75.5 -2t94 -11.5t98.5 -31t88 -59t63.5 -96t24.5 -142.5q0 -133 -58.5 -217t-142.5 -130t-179 -62.5t-169 -16.5q-47 0 -92 1t-86 5v-123q0 -135 5 -264t11 -262q-23 4 -45 6t-45 2q-25 0 -47 -2 t-45 -6q6 135 11 263t5 263v356q0 133 -5 263.5t-11 263.5zM256 711q35 -10 79 -14.5t79 -4.5q66 0 136.5 14.5t128.5 54.5t96 109.5t38 178.5q0 92 -25.5 150t-71.5 90t-113.5 44.5t-149.5 12.5h-197v-635z" />
<glyph unicode="Q" horiz-adv-x="1699" d="M25 696q0 174 56 310.5t158.5 230.5t243 143.5t310.5 49.5t311 -49.5t242.5 -143.5t158 -230.5t56.5 -310.5q0 -143 -40 -261t-113 -209t-176.5 -151.5t-232.5 -90.5l135 -106l168 -130l173 -132l151 -110q-47 -10 -82 -31.5t-53 -43.5l-139 122l-171 144l-175 144 l-150 124q-16 -2 -32 -2h-31q-170 0 -310.5 49t-243 143.5t-158.5 230.5t-56 310zM209 696q0 -176 44 -303t123 -211t185.5 -124t231 -40t231 40t185.5 124t124 211t45 303q0 174 -45 302t-124 212t-185.5 124t-231 40t-231 -40t-185.5 -124t-123 -212t-44 -302z" />
<glyph unicode="R" horiz-adv-x="1169" d="M88 -8q8 135 13 263t5 263v356q0 133 -5 263.5t-13 263.5q57 -4 114.5 -6t112.5 -2q29 0 60 1t59 3l59 4q30 2 60 2q86 0 162 -16.5t134 -53.5t92 -98t34 -150q0 -98 -45 -167.5t-111.5 -116.5t-142.5 -71.5t-137 -33.5l59 -74l80 -100l110 -140l117 -148l109 -135 l88 -105q-49 6 -98 6q-29 0 -59 -2t-58 -6l-99 140l-138 190q-75 100 -154.5 196t-145.5 162h-94v-162q0 -135 5 -264t11 -262q-23 4 -46 6t-45.5 2t-46 -2t-46.5 -6zM256 748q33 -8 69.5 -10.5t80.5 -2.5q66 0 137 15.5t131.5 53.5t99.5 100.5t39 158.5q0 86 -31.5 140 t-81 86t-107.5 44.5t-114 12.5q-80 0 -129 -3.5t-82 -7.5l-8 -231q-4 -117 -4 -229v-127z" />
<glyph unicode="S" horiz-adv-x="960" d="M68 74q16 41 23 81t13 91h7q18 -37 46.5 -76t70.5 -70.5t96.5 -51t124.5 -19.5q72 0 128 24.5t96 66.5t61.5 98t21.5 122q0 70 -25.5 119t-67.5 84t-96.5 60.5t-113.5 49.5q-63 25 -127 54.5t-114 73.5t-81 107.5t-31 158.5q0 84 31 154.5t88 120.5t139 79t183 29 q94 0 164.5 -22t130.5 -69q-18 -35 -28.5 -71.5t-23.5 -89.5h-8q-12 31 -31.5 64.5t-49 63t-72.5 49t-103 19.5q-61 0 -112.5 -19.5t-88 -55t-57 -85t-20.5 -108.5q0 -74 26.5 -124t70.5 -86t100 -60l118 -50q63 -25 123.5 -52t109 -68t78 -100.5t29.5 -145.5 q0 -92 -34 -175t-98.5 -145.5t-156.5 -99.5t-211 -37q-121 0 -198.5 34t-130.5 77z" />
<glyph unicode="T" horiz-adv-x="1097" d="M27 1294q6 25 6 54q0 27 -6 55q135 -4 261 -7t261 -3q131 0 260 3t262 7q-6 -29 -6 -57q0 -12 1 -26.5t5 -25.5q-43 6 -97 10l-113 6q-58 3 -116.5 4t-113.5 1q-4 -109 -5 -220.5t-1 -220.5v-356q0 -135 5 -264t11 -262q-23 4 -46.5 6t-46 2t-46 -2t-45.5 -6 q6 135 11 263t5 263v356q0 108 -1 221q-1 112 -5 220q-53 0 -112.5 -1t-117.5 -4l-113 -6q-54 -4 -97 -10z" />
<glyph unicode="U" horiz-adv-x="1359" d="M82 1401q23 -4 48.5 -6t47.5 -2q43 0 78 6q-4 -47 -8 -120t-7 -164t-5.5 -196.5t-2.5 -218.5q0 -72 2.5 -148.5t15.5 -150t42 -139t81 -116t133 -79t200 -28.5q117 0 196.5 32.5t130.5 89t79 128t41 149.5t15 155t2 144q0 281 -1 437.5t-9 224.5q37 -6 74 -6q25 0 49 6 q-6 -74 -12 -172.5t-10.5 -211t-7.5 -232t-5 -232.5q-2 -135 -41 -244.5t-113.5 -185.5t-182 -117t-244.5 -41q-305 0 -444.5 142.5t-139.5 441.5q0 47 2 95t4 87q2 37 3 73t1 72q0 147 -3 269.5t-7 212.5q0 12 -1 23.5t-1 21.5z" />
<glyph unicode="V" horiz-adv-x="1359" d="M43 1399q45 -6 88 -6q23 0 50.5 2t49.5 6q45 -139 103 -292l120 -312l128 -322l131 -319l83 192l90 221l91 234l86 228l75 205q34 95 56 165q16 -4 32.5 -6t35.5 -2q29 0 57 6l-305 -705l-281 -702q-27 8 -61 8q-16 0 -31.5 -2t-30.5 -6l-113 296l-143 357l-156 383z M598 -10q2 0 5 1t7 1l4 -8z" />
<glyph unicode="W" horiz-adv-x="2105" d="M59 1399q39 -6 88 -6q27 0 48.5 2t46.5 6q39 -158 79 -299l82 -288l95 -307l112 -357q16 41 42 115l53 151l88 265l94 282l81 254q36 117 52 182q27 -6 59 -6q31 0 62 6q14 -55 46 -156l70 -220l82 -252l82 -252l72 -218l51 -151l48 141l71 217l80 254l79 257l66 224 q29 100 41 156q31 -6 66 -6q16 0 27.5 1t25.5 5q-20 -47 -58 -154l-85 -241l-100 -287l-99 -292l-85 -255l-58 -176q-31 6 -64 6q-37 0 -63 -8l-189 597l-200 613l-48 -128l-64 -183l-76 -218l-81 -235l-79 -233l-70 -211q-31 6 -64 6q-21 0 -36 -2t-31 -6l-53 171l-74 248 l-87 285l-89 286l-79 247zM489 -10q6 0 9 2q2 -2 2 -4t2 -6z" />
<glyph unicode="X" horiz-adv-x="1228" d="M80 -4l236 348l233 350l-212 352l-218 353q20 -4 42.5 -5t45.5 -1q29 0 55.5 2t52.5 6q72 -145 149 -279l169 -284h16l89 133l84 133l84 140l87 157q16 -4 36 -6t36 -2h27q12 0 28 4l-48 -66l-46 -61l-179 -251q-89 -126 -171 -255l233 -386l240 -384q-43 6 -94 6 q-29 0 -56.5 -2t-56.5 -6q-10 23 -22.5 43t-22.5 43l-146 273q-77 142 -165 276q-109 -160 -202 -318l-179 -317q-16 4 -36 6t-36 2q-10 0 -26.5 -1t-26.5 -3z" />
<glyph unicode="Y" horiz-adv-x="1218" d="M41 1399q20 -4 46 -5t48 -1q29 0 55.5 2t53.5 6l191 -361l208 -366q51 78 103 168l105 184l100 189l91 186q16 -4 36 -6t40 -2h30q13 0 28 4l-170 -263l-136 -215q-59 -97 -104 -179l-80 -148q0 -74 1 -158l2 -165q1 -81 4 -153.5t7 -123.5q-25 4 -46 6t-44 2 q-45 0 -90 -6q10 111 12.5 262.5t2.5 312.5l-3 6l-57 100l-84 143l-98 166l-99 167l-89 145q-39 66 -64 103z" />
<glyph unicode="Z" horiz-adv-x="1247" d="M43 10l174 242l184 261l180 259l160 236l128 190l81 123q-37 2 -84 3t-80 1q-74 0 -161.5 -2t-177 -6t-171 -9t-143.5 -12q4 10 5 24.5t1 27.5q0 16 -1 27t-5 26q102 -8 316 -8h536q41 0 87 2t89 6q10 0 18.5 1t16.5 1v-23q-45 -53 -122 -156l-169 -232l-189 -268 l-185 -267l-153 -230q-67 -102 -95 -151q49 -4 98 -7t90 -3q76 0 176.5 3t201.5 8t192.5 12t150.5 13q-6 -25 -6 -57q0 -29 6 -55q-74 2 -135.5 4t-116.5 3l-109 2q-53 1 -112 1q-80 0 -179 -1l-196 -2q-96 -1 -177 -3t-124 -4v20z" />
<glyph unicode="[" horiz-adv-x="423" d="M92 -250q6 143 9 279.5t3 281.5v525q0 144 -3 281.5t-9 279.5q18 -2 44 -3t52 -1q47 0 111 2t107 4v-19q0 -14 2 -22q-43 2 -91.5 4t-95.5 2q-8 -129 -12 -264t-4 -264v-525q0 -129 4 -264t12 -264q45 0 95.5 2t91.5 4q-2 -8 -2 -22q0 -12 2 -19q-45 2 -108.5 4t-111.5 2 q-27 0 -52.5 -1t-43.5 -3zM406 1399q2 4 2 6t2 6l10 -12h-8h-6zM408 -252h4q2 0 4 2t4 2l-10 -12q-2 4 -2 8z" />
<glyph unicode="\" horiz-adv-x="686" d="M20 1434q20 -4 35 -4q25 0 47 6l562 -1477q-20 4 -35 4q-27 0 -47 -6z" />
<glyph unicode="]" horiz-adv-x="428" d="M4 -252h8h4q0 -4 -1 -6t-1 -6zM4 1395l10 12q0 -6 2 -8h-4q-2 -2 -4 -2t-4 -2zM16 -211q43 -2 91.5 -4t95.5 -2q8 129 12 264t4 264v525q0 129 -4 264t-12 264q-45 0 -95.5 -2t-91.5 -4q2 8 2 22q0 4 -1 9.5t-1 9.5q43 -2 107.5 -4t112.5 -2q27 0 52 1t44 3 q-6 -143 -9.5 -279.5t-3.5 -281.5v-525q0 -143 3.5 -281.5t9.5 -279.5q-18 2 -44 3t-52 1q-47 0 -111 -2t-109 -4q2 6 2 19q0 14 -2 22z" />
<glyph unicode="^" horiz-adv-x="1136" d="M41 422l479 919h98l239 -459l237 -460h-88l-439 854l-220 -427l-220 -427h-86z" />
<glyph unicode="_" horiz-adv-x="1202" d="M90 -186h1020v-84h-1020v84z" />
<glyph unicode="`" horiz-adv-x="581" d="M66 1444q0 29 20 42t37 13q20 0 41.5 -13t44.5 -34l142 -145l145 -146h-60l-301 193q-23 16 -46 36.5t-23 53.5z" />
<glyph unicode="a" horiz-adv-x="974" d="M63 213q0 119 79 185.5t206 88.5q106 18 170 33t97.5 31t43 37.5t9.5 54.5q0 55 -12.5 104.5t-41 87t-73.5 59t-111 21.5q-84 0 -156.5 -35.5t-109.5 -105.5h-8v92q90 68 165.5 92.5t157.5 24.5q145 0 235.5 -81t90.5 -216q0 -57 -1 -113.5t-3 -116t-3 -124t-1 -131.5 q0 -27 1 -55.5t10 -53t27.5 -40t53.5 -15.5h14q8 0 19 4v-25q-23 -10 -55.5 -17t-67.5 -7q-61 0 -95 42t-40 101q-41 -41 -79 -72.5t-78 -52t-83 -31t-94 -10.5q-49 0 -97.5 16.5t-86 48.5t-60.5 77t-23 102zM213 244q0 -51 16.5 -90t43 -66t60.5 -40t70 -13q84 0 152 47 t104 106l9 330q-33 -10 -67 -18l-64 -15q-53 -10 -109.5 -25.5t-105 -42t-79 -68.5t-30.5 -105z" />
<glyph unicode="b" horiz-adv-x="1038" d="M88 0q4 49 7 118.5t5 148.5t3 159t1 152v376q0 70 -1 150l-2 159q-1 79 -4 151.5t-7 125.5q20 -4 38.5 -6t41.5 -2t44.5 2t45.5 6q-6 -43 -9 -136t-6 -209t-4 -236.5t-3 -217.5q82 123 170 182.5t196 59.5q104 0 182 -40t129.5 -105.5t76 -151.5t24.5 -180 q0 -117 -35 -216.5t-97.5 -170t-146.5 -110.5t-182 -40q-96 0 -177 47t-122 109q-39 -29 -78 -62.5t-67 -62.5h-23zM231 442q0 -211 80 -319.5t234 -108.5q66 0 122 36t98 100.5t65.5 156.5t23.5 205q0 98 -24.5 174t-64.5 126t-93.5 76.5t-108.5 26.5q-68 0 -128 -24.5 t-105 -79.5t-72 -146.5t-27 -222.5z" />
<glyph unicode="c" horiz-adv-x="991" d="M74 475q0 133 45 229.5t117.5 158t166 91t191.5 29.5q106 0 193 -24.5t128 -59.5q-27 -51 -41 -125l-4 -4q-16 27 -41.5 56.5t-59.5 54t-77 41t-92 16.5q-98 0 -166.5 -35t-113 -97.5t-64.5 -146.5t-20 -182q0 -219 95 -330.5t275 -111.5q82 0 166 40t141 99 q-4 -20 -5 -41.5t-3 -42.5q-61 -49 -152 -85t-184 -36q-90 0 -178 28t-158.5 89t-114.5 157.5t-44 231.5zM913 174q2 4 2.5 7t2.5 7l2 -10h-2z" />
<glyph unicode="d" horiz-adv-x="1036" d="M23 469q0 131 37.5 227.5t100 160t140.5 95t158 31.5q111 0 189.5 -53t121.5 -154l18 4q2 96 3 202v207q0 101 -2.5 192.5l-4.5 158.5q8 -2 15 -2q16 -4 34.5 -5t34.5 -1q31 0 62 6q6 2 18 2q-6 -68 -11 -193.5t-7 -274t-3 -306.5t-1 -289q0 -86 1 -175t3 -161 q0 -35 1 -73.5t1 -75.5h-8q-4 0 -9 2q-6 0 -16 1l-19.5 2t-15.5 2t-4 1q-29 0 -55 -6q-4 -2 -12 -2l6 194l-17 4q-16 -33 -44.5 -70.5t-71.5 -71.5t-100.5 -56.5t-131.5 -22.5q-78 0 -151.5 29t-132 90.5t-93 155.5t-34.5 225zM184 457q0 -127 27 -211t70 -133.5t95 -68.5 t105 -19q84 0 144.5 40.5t99.5 108.5t57.5 152t18.5 170q0 203 -80 311t-234 108q-78 0 -134 -35.5t-94 -97t-56.5 -145.5t-18.5 -180z" />
<glyph unicode="e" horiz-adv-x="1015" d="M66 446q0 248 119.5 392.5t344.5 144.5q106 0 185.5 -33t131.5 -89t77.5 -132t25.5 -160v-34q0 -18 -2 -37q-29 0 -73 1t-70 1q-147 6 -293 6q-41 0 -90 -1t-90 -5q-23 0 -51.5 -1t-51.5 -1q-2 -16 -2 -34v-34q0 -84 24.5 -155.5t72 -125t116 -84t158.5 -30.5 q82 0 167 41t142 100q-4 -23 -5 -42t-5 -42q-61 -49 -152.5 -86t-185.5 -37q-111 0 -201 37t-155.5 100.5t-101 150.5t-35.5 189zM233 557q16 0 46 -1t47 -1q47 -2 95 -3t93 -1q41 0 95.5 1t97.5 3q23 0 48 1t46 1q0 57 -10.5 125t-39 124t-81 94t-135.5 38 q-78 0 -133.5 -37t-91.5 -94t-54.5 -124t-22.5 -126zM907 176q0 4 1 6t1 6l2 -10h-2z" />
<glyph unicode="f" horiz-adv-x="618" d="M29 889q2 10 2 31q0 6 -1 16t-1 16q18 0 31.5 -1t31.5 -1h84q0 61 13.5 132t36 140.5t55 130t73.5 101.5q37 35 92.5 64.5t112.5 29.5q10 0 31 -4q0 -14 -1 -30.5t-3 -30.5q-2 -25 -3 -47.5t-1 -44.5q-53 31 -117 30q-49 0 -84 -18.5t-56.5 -48t-30.5 -69.5t-9 -83 q0 -18 2 -47t6 -62.5t8 -71.5t10 -71h115q25 0 47.5 1t46.5 1q-2 -10 -2 -16v-16q0 -20 2 -31q-12 0 -29.5 1t-27.5 1q-35 2 -77 3t-77 1q0 -223 1 -450.5t7 -452.5q-18 4 -37.5 6t-39.5 2q-23 0 -41.5 -2t-38.5 -6q14 229 15 451.5t1 451.5q-23 0 -54.5 -1t-55.5 -3 q-10 0 -18.5 -1t-18.5 -1z" />
<glyph unicode="g" horiz-adv-x="1038" d="M68 -274q0 53 21.5 98t56 79t78.5 58.5t91 38.5q-78 27 -117.5 71t-39.5 99q0 33 15 60.5t41 50t56.5 37t61.5 20.5q-106 51 -168 129t-62 188q0 84 31 145.5t84 102.5t123 60.5t149 19.5q25 0 51.5 -1t55.5 -3q14 -2 29.5 -2t31.5 -2q8 0 17.5 -1t15.5 -1q33 -4 64.5 -5 t48.5 -1q109 0 155 6q-2 -10 -2 -29q0 -23 2 -33q-16 2 -25 2t-26 2q-43 4 -86 7l-84 4l-8 -17q61 -37 100 -110.5t39 -147.5q0 -154 -101 -238.5t-273 -84.5q-10 0 -26.5 1t-29.5 1q-12 2 -27 2h-32q-41 0 -77 -30t-36 -75q0 -59 32 -85.5t101 -30.5q23 -2 58 -3t57 -1 q29 -2 56 -3h59q182 -4 263 -76.5t81 -179.5q0 -70 -27.5 -142.5t-86 -132.5t-150 -98t-217.5 -38q-197 0 -310.5 77t-113.5 212zM180 -252q0 -74 24.5 -126t66.5 -84t99.5 -47t125.5 -15q66 0 127 17.5t109 52t78 88t30 124.5q0 129 -76 185.5t-248 56.5q-158 0 -247 -56.5 t-89 -195.5zM244 655q0 -135 60.5 -213.5t184.5 -78.5q61 0 106.5 24.5t74 66.5t43 97t14.5 115q0 133 -64.5 205.5t-170.5 72.5q-117 0 -182.5 -79t-65.5 -210z" />
<glyph unicode="h" horiz-adv-x="942" d="M92 -8q4 51 7 122.5t4 150.5l2 160q1 81 1 153v376q0 70 -1 150l-2 159q-1 79 -4 151.5t-7 125.5q20 -4 40 -6t42.5 -2t40.5 2t39 6q-4 -53 -7 -123.5t-5 -148.5t-2 -157v-146v-193q70 100 153.5 155.5t194.5 55.5q55 0 112.5 -16.5t103.5 -56.5t75.5 -107.5t29.5 -171.5 q0 -41 -1 -84t-3 -90q-2 -49 -3 -102.5t-1 -106.5v-129q0 -61 4 -127q-18 4 -37.5 6t-40 2t-39 -2t-34.5 -6q2 39 3 79t3 76q4 74 6 146t2 149v127q0 158 -64.5 242t-173.5 84q-150 0 -220 -92t-70 -258q0 -57 1 -130l2 -150q1 -77 4 -148.5t7 -124.5q-20 4 -38.5 6t-41 2 t-42.5 -2t-40 -6z" />
<glyph unicode="i" horiz-adv-x="321" d="M63 1333q0 41 29 69t68 28t67.5 -28t28.5 -69q0 -39 -28.5 -66.5t-67.5 -27.5t-68 27.5t-29 66.5zM78 -8q10 88 13 186t3 191v215q0 92 -3 190t-13 187q23 -4 41 -6.5t40.5 -2.5t41 2t41.5 7q-10 -88 -13.5 -186.5t-3.5 -190.5v-215q0 -92 3 -190.5t14 -186.5 q-23 4 -41.5 6t-41 2t-40.5 -2t-41 -6z" />
<glyph unicode="j" horiz-adv-x="503" d="M68 -586q10 -2 9 -1t9 1q63 0 101 37t59.5 94.5t29 129t7.5 141.5l-7 684q0 123 -3 246.5t-11 214.5q20 -4 40 -6.5t42.5 -2.5t40.5 2t39 7q-8 -88 -11 -186.5t-3 -190.5v-215q0 -61 1 -132t5 -143q4 -74 6 -143.5t2 -128.5q0 -86 -8 -159t-56 -140 q-45 -63 -115.5 -106.5t-166.5 -47.5q-4 14 -5 23.5t-5 21.5zM248 1333q0 41 27.5 69t68.5 28q39 0 66.5 -28t27.5 -69q0 -39 -27.5 -66.5t-66.5 -27.5q-41 0 -68.5 27.5t-27.5 66.5z" />
<glyph unicode="k" horiz-adv-x="966" d="M63 -8q4 51 7.5 122.5t4.5 150.5l2 160q1 81 1 153v376q0 70 -1 150l-2 159q-1 79 -4 151.5t-8 125.5q20 -4 40 -6t42.5 -2t41 2t38.5 6q-4 -53 -7 -123.5t-5 -149.5t-2 -160v-153v-379q0 -49 35 -49q16 0 34.5 11.5t41.5 27.5h-3q10 4 13 6l4 4h-2q18 14 61 56l98 95 l112 117l108 118q14 -4 35.5 -6.5t39.5 -2.5q16 0 32 1t38 5l-237 -199q-115 -99 -222 -204l490 -561q-47 6 -92 6q-27 0 -51.5 -2t-49.5 -6l-101 127l-114 137l-109 126l-89 97q-8 10 -19.5 18.5t-21.5 8.5q-31 0 -31 -37v-125q0 -88 3 -176t11 -176q-20 4 -38.5 6t-41 2 t-42.5 -2t-40 -6zM858 958q8 4 14.5 10.5t14.5 12.5l6 -18q-4 0 -9 -1t-10 -1q-6 -3 -16 -3z" />
<glyph unicode="l" horiz-adv-x="342" d="M86 -8q6 51 9 122.5t4 150.5l2 160q1 81 1 153v376q0 70 -1 150t-3 158.5t-5 151.5t-7 126q23 -4 41 -6t40.5 -2t41 2t41.5 6q-6 -53 -9 -123.5t-4 -149.5l-3 -160q-1 -81 -1 -153v-376q0 -70 1.5 -150t3.5 -159t5 -151.5t7 -125.5q-23 4 -41.5 6t-41 2t-40.5 -2t-41 -6z " />
<glyph unicode="m" horiz-adv-x="1591" d="M88 961q20 -4 39.5 -6.5t42.5 -2.5q14 0 31.5 2t38.5 7q-4 -43 -4 -96v-95q133 213 323 213q51 0 99.5 -16.5t88 -46t68.5 -70.5t41 -90q59 109 146.5 166t197.5 57q66 0 122 -18.5t97 -56.5t64.5 -98t23.5 -144q0 -29 -1 -61t-3 -66q-4 -59 -6 -139.5t-2 -194.5v-103 q0 -49 4 -108q-35 6 -78 6q-41 0 -78 -6q6 66 12.5 221.5t6.5 419.5q0 55 -11.5 102t-38 82t-70.5 55.5t-109 20.5q-78 0 -132.5 -29.5t-82.5 -70.5q-16 -25 -26.5 -48.5t-17 -70.5t-8.5 -132t-2 -235q0 -86 4 -156.5l9 -160.5q-23 4 -42.5 6t-40 2t-39 -2t-40.5 -6 q10 113 14 230.5t4 228.5q0 96 -1 152t-5 90t-12 54.5t-23 47.5q-23 41 -74 70.5t-106 29.5q-139 0 -207.5 -92t-68.5 -258v-176q0 -92 3 -190.5t11 -186.5q-20 4 -38.5 6t-41.5 2t-42 -2t-40 -6q8 88 11 186t3 191v215q0 92 -3 190.5t-11 186.5z" />
<glyph unicode="n" horiz-adv-x="991" d="M88 -8q8 88 11 186t3 191v215q0 92 -3 190t-11 187q20 -4 39.5 -6.5t42.5 -2.5q14 0 31.5 2t38.5 7q-4 -43 -4 -95v-94q70 100 153.5 155.5t194.5 55.5q55 0 112.5 -16.5t103.5 -56.5t75.5 -107.5t29.5 -171.5q0 -41 -1 -84t-3 -90q-2 -49 -3 -102.5t-1 -106.5v-129 q0 -61 4 -127q-18 4 -37.5 6t-40 2t-39 -2t-34.5 -6q2 39 3 79t3 76q4 74 6 146t2 149v127q0 158 -64.5 242t-173.5 84q-150 0 -220 -92t-70 -258v-176q0 -92 3 -190.5t11 -186.5q-20 4 -38.5 6t-41.5 2t-42.5 -2t-39.5 -6z" />
<glyph unicode="o" horiz-adv-x="1124" d="M68 475q0 139 44 235.5t113.5 157t157.5 88t178 27.5q88 0 177 -27.5t159 -88t114 -157t44 -235.5t-44 -235.5t-114 -155.5t-159 -87t-177 -28q-90 0 -178 28t-157.5 87t-113.5 155.5t-44 235.5zM229 475q0 -90 16.5 -173t54.5 -146.5t101.5 -102.5t159.5 -39 q94 0 158.5 39t102.5 102.5t54.5 146.5t16.5 173t-16.5 173t-54.5 147.5t-102.5 103.5t-158.5 39q-96 0 -159.5 -39t-101.5 -103.5t-54.5 -147.5t-16.5 -173z" />
<glyph unicode="p" horiz-adv-x="1040" d="M90 961q20 -4 38.5 -6.5t41.5 -2.5q45 0 82 6q-6 -51 -10 -96t-4 -98l16 -4q16 33 44 71.5t70 72.5t99 56.5t135 22.5t151.5 -28.5t132 -90t94.5 -157t36 -226.5q0 -129 -38 -225t-100.5 -159.5t-141.5 -95.5t-158 -32q-113 0 -193 51.5t-127 149.5l-16 -4l-4 -135 q0 -70 1 -150l2 -159q1 -79 4 -151.5t7 -125.5q-20 4 -39.5 6t-42.5 2t-41 -2t-39 -6q4 51 7 123t4 150l2 160q1 81 1 153v338q0 69 -1 149l-2 160q-1 80 -4 154t-7 129zM238 467q0 -219 79.5 -330.5t233.5 -111.5q76 0 133 35.5t95 97t56.5 145.5t18.5 180q0 129 -26.5 212 t-69.5 132.5t-96.5 68.5t-104.5 19q-88 0 -148.5 -35.5t-98.5 -96t-55 -142.5t-17 -174z" />
<glyph unicode="q" horiz-adv-x="1038" d="M23 469q0 135 37.5 231.5t99 160t137.5 93t152 29.5q137 0 215.5 -64.5t113.5 -158.5l19 4q2 26 2 50t-2 46q-4 45 -11 98q37 -6 82 -6q23 0 41.5 2t38.5 7q-4 -55 -7 -127t-5 -152t-2 -161v-152v-338q0 -70 1 -150l2 -159q1 -79 4 -151.5t7 -125.5q-20 4 -38.5 6t-41 2 t-42 -2t-40.5 -6q4 51 7.5 123t4.5 150l2 160q1 81 1 153v159l-17 5q-59 -117 -147 -171.5t-188 -54.5q-76 0 -152 25.5t-137.5 85t-99 155t-37.5 234.5zM184 453q0 -92 18.5 -170t54.5 -135.5t90 -90t126 -32.5q80 0 141.5 40.5t103.5 107.5t62.5 152t20.5 171 q0 82 -17.5 157.5t-54.5 134t-95.5 93t-141.5 34.5q-53 0 -107.5 -19t-98.5 -71.5t-73 -142.5t-29 -229z" />
<glyph unicode="r" horiz-adv-x="595" d="M90 961q20 -4 38.5 -6.5t39.5 -2.5q35 0 70 6q-6 -63 -7.5 -107t-1.5 -85l17 -4q63 111 134 166t138 55q29 0 53 -8q-8 -29 -9 -74t-1 -84l-4 -2q-18 10 -46 20.5t-56 10.5q-53 0 -94.5 -23.5t-70 -63.5t-44 -94.5t-15.5 -117.5v-223v-152q0 -61 1 -102t6 -76 q-35 6 -70 6q-20 0 -36.5 -2t-39.5 -6q6 78 6 193v290v68q0 80 -1 181.5t-7 236.5z" />
<glyph unicode="s" horiz-adv-x="755" d="M76 29q10 25 21.5 66.5t13.5 72.5h8q12 -23 34.5 -47.5t53.5 -46t69.5 -35.5t83.5 -14q41 0 79 13t68 37.5t47 61.5t17 86q0 45 -18 77t-50 53.5t-72 36.5t-83 28q-47 14 -94 31.5t-86 46t-62.5 72.5t-23.5 112q0 131 87 217t247 86q55 0 98 -13.5t80 -27.5 q10 -4 18.5 -8t18.5 -8q-16 -29 -28.5 -67t-16.5 -60h-6q-20 49 -69.5 88t-121.5 39q-33 0 -65.5 -10.5t-59 -33t-44 -57t-17.5 -84.5q0 -51 19.5 -83.5t51 -54t72.5 -36t84 -26.5q47 -12 94 -28.5t84 -44.5t60.5 -71t23.5 -110q0 -57 -25.5 -114.5t-72.5 -102.5t-113.5 -73 t-150.5 -28q-88 0 -150.5 18.5t-103.5 41.5z" />
<glyph unicode="t" horiz-adv-x="579" d="M35 874q2 10 2 18v17q0 6 -1 14.5t-1 14.5q47 0 79.5 -1t55.5 -1q0 14 -1 36.5t-1 41.5q-2 35 -3 74.5t-3 80.5l160 70q-4 -78 -7.5 -155.5t-7.5 -149.5q23 0 85.5 1t133.5 5v-66q-44 3 -93 4h-24q-62 -1 -100 -1q-2 -8 -4 -67.5t-5 -141.5t-5 -172t-2 -158 q0 -59 3 -117.5t20.5 -104.5t53.5 -74t101 -28q14 0 39 3t45 8v-27q-35 -10 -75 -19.5t-74 -9.5q-125 0 -185.5 65.5t-60.5 184.5q0 47 2 108l4 119q4 86 5 194t3 237q-29 0 -63 1h-15q-28 -1 -61 -4zM322 1239q0 4 1 6t1 6l10 -10h-6z" />
<glyph unicode="u" horiz-adv-x="993" d="M86 299q0 59 1 108.5t3 92.5q2 39 2 72v69q0 72 -1 152.5t-3 167.5q18 -4 38.5 -6.5t39 -2.5t36 2t36.5 7q-10 -123 -14.5 -267.5t-4.5 -298.5q0 -111 19.5 -169t48.5 -89q31 -35 77 -58.5t109 -23.5q92 0 152.5 40t89.5 100q14 33 23.5 59.5t13.5 68.5t5 113.5t1 194.5 v170q0 86 -4 160q18 -4 35.5 -6.5t40 -2.5t41 2t34.5 7q-4 -82 -7 -158t-5 -152t-2 -152v-159q0 -90 1 -176t5 -172q-16 4 -34.5 6t-35.5 2q-35 0 -67 -6q4 45 3 101.5t-1 99.5q-66 -111 -154 -168.5t-186 -57.5q-158 0 -247 86t-89 244z" />
<glyph unicode="v" horiz-adv-x="1005" d="M47 958q39 -6 84 -6q23 0 43.5 2t40.5 7q66 -205 143.5 -409t171.5 -415q86 178 158 363l135 362l17 48l16 51q16 -4 29.5 -6.5t29.5 -2.5h24q9 0 19 4l-23 -58q-9 -24 -24 -54l-189 -427q-91 -210 -169 -425q-12 4 -26.5 6t-28.5 2q-33 0 -60 -8q-4 16 -12 31.5 t-12 31.5l-174 451q-89 225 -193 452zM428 -10q4 0 6 1t4 1l4 -8z" />
<glyph unicode="w" horiz-adv-x="1626" d="M63 958q37 -6 78 -6q23 0 45.5 2t42.5 7q53 -199 121 -399t154 -417l60 158l75 209l77 229l68 217q25 -6 56 -6q23 0 51 6q47 -184 108 -359l127 -357l35 -97l65 164l80 210l84 226l76 213q27 -6 58 -6q10 0 20 1t21 3q-113 -244 -213.5 -483.5t-188.5 -480.5h-2 q-10 4 -21.5 6t-21.5 2q-29 0 -47 -6q-53 188 -118.5 379.5t-153.5 404.5q-29 -66 -66 -160l-76 -201l-75 -218q-37 -111 -66 -207h-2q-10 4 -22.5 6t-24.5 2q-14 0 -26.5 -2t-22.5 -6h-4q-25 82 -64 197l-87 247l-99 266zM408 -10q4 0 6 2q2 -2 2 -4t2 -6z" />
<glyph unicode="x" horiz-adv-x="1058" d="M92 -2l188 233l179 234l-179 247l-188 246q39 -6 84 -6q57 0 105 9q59 -98 123 -193l137 -190h16l145 190q72 94 138 193q16 -4 33.5 -6.5t35.5 -2.5q10 0 20.5 1t20.5 3l-187 -217l-179 -215l188 -265l201 -265q-41 6 -80 6q-29 0 -53.5 -2t-48.5 -6l-145 215l-148 215 l-154 -215l-145 -215q-16 4 -33 6t-33 2h-20q-11 0 -21 -2z" />
<glyph unicode="y" horiz-adv-x="997" d="M63 958q16 -4 37 -5t39 -1q23 0 45.5 2t42.5 7q55 -174 127 -353l148 -358q8 -16 17 -42l24 -63q45 94 89 198l85 208q41 104 77.5 207.5l67.5 199.5q31 -6 62 -6h25q11 0 24 4l-79 -169l-117 -257l-136 -304l-136 -310l-115 -274q-50 -125 -73 -197q-31 8 -65 8 q-10 0 -23.5 -1t-23.5 -3q80 133 146.5 264t119.5 260v9l-57 144l-74 179l-80 194l-79 187l-68 160z" />
<glyph unicode="z" horiz-adv-x="995" d="M53 4l155 194l156 202l147 197l130 175l49 66l43 57q-16 0 -82.5 -2t-153.5 -6t-178.5 -9.5t-154.5 -11.5q2 10 2 21v24q0 12 -1 24.5t-3 25.5q66 -6 191.5 -7.5t314.5 -1.5q88 0 143 1t119 8v-15l-120 -155l-130 -171l-130 -173l-121 -160l-100 -135l-71 -97q88 0 163 1 t149.5 4t156.5 8.5t188 15.5q-2 -12 -3 -24.5t-1 -22.5q0 -23 7 -47q-31 0 -57.5 1t-59.5 3q-197 6 -391 6q-139 0 -275 -6q-23 -2 -43 -3t-39 -1v14z" />
<glyph unicode="{" horiz-adv-x="497" d="M23 541v65q74 4 113.5 60.5t39.5 146.5v352q0 133 44 183.5t128 50.5h111v-58h-58q-59 0 -88.5 -32.5t-29.5 -143.5v-340q0 -98 -53.5 -156.5t-149.5 -93.5q96 -37 149.5 -96t53.5 -157v-340q0 -111 29.5 -144t88.5 -33h58v-57h-111q-84 0 -128 50t-44 184v352 q0 90 -39.5 146.5t-113.5 60.5z" />
<glyph unicode="|" horiz-adv-x="294" d="M98 -520v2058h86v-2058h-86z" />
<glyph unicode="}" horiz-adv-x="497" d="M37 -195h57q59 0 89 33t30 144v340q0 98 53 156.5t150 92.5q-96 37 -149.5 96.5t-53.5 157.5v340q0 111 -29.5 143.5t-89.5 32.5h-57v58h110q82 0 127 -50.5t45 -183.5v-352q0 -90 40 -146.5t114 -60.5v-65q-74 -4 -114 -60.5t-40 -146.5v-352q0 -133 -45 -183.5 t-127 -50.5h-110v57z" />
<glyph unicode="~" horiz-adv-x="1064" d="M72 469q47 78 99 119t140 41q59 0 103.5 -15.5t89.5 -35.5q16 -8 32.5 -14.5t32.5 -14.5q49 -25 93.5 -43.5t93.5 -18.5q31 0 58.5 13.5t52 34t45 47t34.5 51.5q12 -18 24.5 -33.5t22.5 -32.5q-20 -31 -44.5 -60.5t-53.5 -53t-64.5 -38t-76.5 -14.5q-59 0 -113.5 20.5 t-120.5 53.5q-55 29 -105 48.5t-89 19.5q-45 0 -79 -13.5t-58.5 -35t-42 -46t-29.5 -49.5z" />
<glyph unicode="&#xa1;" horiz-adv-x="358" d="M68 874q0 45 32.5 77t75.5 32t76 -31.5t33 -77.5q0 -43 -33 -75.5t-76 -32.5t-75.5 32.5t-32.5 75.5zM84 -381q0 14 5 85t14 175l21 233q11 128 21 259q4 59 10.5 117.5t10.5 113.5h20q4 -57 10.5 -113.5t10.5 -117.5q10 -131 21 -259l21 -233q9 -104 14 -175t5 -85 q0 -49 -28.5 -69.5t-63.5 -20.5t-63.5 20.5t-28.5 69.5z" />
<glyph unicode="&#xa2;" horiz-adv-x="983" d="M70 475q0 119 36.5 208t99 150.5t143.5 97.5t169 46v27q0 39 -2 87t-6 95q10 -2 20.5 -3t20.5 -1q12 0 22.5 1t20.5 3q-4 -45 -6 -92t-2 -88v-23q111 -2 197.5 -25.5t127.5 -58.5q-27 -51 -41 -125l-4 -4q-16 27 -41.5 56.5t-60.5 54t-80 41t-98 16.5v-903q90 0 178 40 t145 99q-4 -20 -5 -41.5t-3 -42.5q-57 -47 -141 -80t-174 -37v-26q0 -41 2 -95.5t6 -101.5q-10 2 -20.5 3t-22.5 1q-10 0 -20.5 -1t-20.5 -3q4 45 6 99.5t2 99.5v24q-84 8 -165 40t-143.5 93.5t-101 152.5t-38.5 216zM231 477q0 -186 73 -295.5t214 -138.5v887 q-152 -35 -219.5 -157t-67.5 -296zM909 174q2 4 2 7t2 7l2 -10h-2z" />
<glyph unicode="&#xa3;" horiz-adv-x="1038" d="M37 -10q2 12 2 24v31v28q0 15 -2 29h16q92 0 149.5 26t90.5 72t44 112.5t11 146.5q0 53 -5 106t-11 101q0 4 -1 11t-1 11q-47 -2 -100.5 -3t-100.5 -1q2 10 2 18v19q0 8 1 13t-1 16q33 -4 82 -5.5t109 -1.5q-12 92 -13 152q0 141 38 233.5t98.5 147.5t132 77.5 t139.5 22.5q72 0 144.5 -25.5t111.5 -72.5q-16 -18 -33.5 -43t-34.5 -53q-18 70 -70.5 103.5t-117.5 33.5q-59 0 -106.5 -22.5t-81 -61.5t-52 -92t-18.5 -115q0 -63 2 -115.5t6 -99.5q2 -16 2 -35.5t2 -34.5q135 0 240 7q18 2 37.5 1t37.5 1q-2 -10 -2 -31v-19q0 -10 2 -16 q-4 0 -4 -1t-4 -1q-74 2 -148.5 3t-152.5 1q2 -23 3 -52.5t1 -53.5q0 -78 -18.5 -149t-49 -131t-71.5 -109.5t-84 -81.5l94 -2q24 0 49 1q76 1 153 3l152 4q75 2 140 6q33 2 65.5 2t61.5 2q-2 -16 -3 -35.5t-1 -36.5q0 -18 1 -33.5t3 -31.5q-29 0 -53.5 1t-53.5 3 q-184 6 -368 6q-178 0 -357 -6q-29 -2 -52 -3t-52 -1zM899 1169l6 13q0 -2 2 -4t4 -3.5t4 -3.5z" />
<glyph unicode="&#xa4;" horiz-adv-x="1175" d="M82 672q0 90 32.5 172t86.5 149l-57 59l-56 58l59 59l115 -114q68 57 151 89t175 32t175 -31t148 -88l113 112l57 -57l-110 -115q57 -66 90 -149.5t33 -175.5q0 -90 -32 -173t-87 -153l106 -106q-16 -16 -28.5 -31.5t-28.5 -32.5l-113 111q-68 -59 -149.5 -90t-173.5 -31 t-176 31.5t-150 91.5l-57 -56l-58 -57q-16 16 -28.5 31.5t-28.5 32.5l109 110q-53 68 -85 150t-32 172zM170 672q0 -90 31.5 -168t88 -135.5t132.5 -91t166 -33.5q88 0 164.5 33.5t133 91t88.5 135.5t32 168q0 88 -32 165.5t-88.5 136t-133 92.5t-164.5 34q-90 0 -166 -34 t-132.5 -92.5t-88 -136t-31.5 -165.5z" />
<glyph unicode="&#xa5;" horiz-adv-x="1124" d="M47 1399q43 -6 88 -6q25 0 52.5 2t50.5 6q18 -41 59 -115l91 -160l105 -177l99 -165l196 311q96 157 177 306q16 -4 32.5 -6t32.5 -2q10 0 21.5 1t23.5 3q-82 -109 -175 -248l-204 -303l-32 -51q-18 -29 -35 -52q86 0 174 1t172 4q-2 -8 -2 -17v-16q0 -23 2 -33 q-23 0 -55.5 1t-53.5 1q-59 2 -124.5 3t-127.5 1v-203h181q92 0 180 2q-2 -8 -2 -16v-16q0 -23 2 -33q-92 4 -180 6t-181 2q0 -117 2 -226.5t11 -209.5q-41 6 -82 6q-45 0 -84 -6q8 111 10 218t2 218q-86 0 -175 -2t-177 -6q2 8 2 16v17q0 23 -2 32q90 -2 177 -2h175v203 q-53 0 -122.5 -1t-123.5 -3q-29 0 -53 -1t-53 -1q2 8 2 16v17q0 23 -2 33q86 -2 172 -3.5t170 -1.5l-78 124l-80 124l-126 204z" />
<glyph unicode="&#xa6;" horiz-adv-x="266" d="M98 342h86v-707h-86v707zM98 676v706h86v-706h-86z" />
<glyph unicode="&#xa7;" horiz-adv-x="894" d="M61 647q0 47 15.5 88t39 73t49 56.5t48.5 36.5q-2 2 -7 9.5t-7 9.5v-2q-23 35 -36 69.5t-13 112.5q0 61 22.5 120.5t67.5 105.5t111.5 75t156.5 29q98 0 160.5 -36t101.5 -81q-16 -20 -32.5 -51t-22.5 -62h-6q-20 68 -80 121t-150 53q-45 0 -88 -15.5t-76.5 -44 t-55 -68.5t-21.5 -91q0 -55 24.5 -96t65.5 -72t91 -54.5t103 -43.5l112 -47q56 -25 100 -61t73 -84t29 -115q0 -43 -12.5 -83t-32 -75t-41 -63.5t-39.5 -49.5q37 -31 58.5 -74.5t21.5 -109.5q0 -74 -28 -144.5t-82 -126t-133 -89t-183 -33.5q-37 0 -76 7t-76 18.5 t-70.5 26.5t-58.5 32q10 35 16 81t6 81h7q10 -25 32.5 -58t60.5 -62.5t91 -49t127 -19.5q57 0 108.5 22.5t89 58.5t60.5 81t23 92q0 53 -25 92t-66 69t-93 52.5t-107 42.5l-126 52.5t-113 66.5t-82 94t-32 133zM139 715q0 -41 12.5 -74t40 -60.5t70.5 -53t105 -52.5l128 -54 q54 -24 92 -42.5t63.5 -32.5t43.5 -27q23 35 43.5 74t20.5 96q0 41 -9.5 71t-31 54.5t-58 47t-90.5 47.5q-102 45 -162 74l-97 48q-36 18 -52 31l-31 23q-29 -27 -58.5 -72t-29.5 -98z" />
<glyph unicode="&#xa8;" horiz-adv-x="770" d="M84 1313q0 41 27.5 68.5t68.5 27.5q39 0 66.5 -27.5t27.5 -68.5q0 -39 -27.5 -67.5t-66.5 -28.5q-41 0 -68.5 28.5t-27.5 67.5zM494 1313q0 41 27.5 68.5t66.5 27.5q41 0 68.5 -27.5t27.5 -68.5q0 -39 -27.5 -67.5t-68.5 -28.5q-39 0 -66.5 28.5t-27.5 67.5z" />
<glyph unicode="&#xa9;" horiz-adv-x="1587" d="M59 696.5q0 151.5 57.5 285.5t157 233.5t233.5 157t285.5 57.5t285.5 -57.5t233.5 -157t157 -233.5t57.5 -285.5t-57.5 -286t-157 -233.5t-233.5 -156.5t-285.5 -57.5t-285.5 57.5t-233.5 156.5t-157 233.5t-57.5 286zM125 696q0 -141 51 -264t141.5 -215t212 -145.5 t263 -53.5t263.5 53.5t212 145.5t141 215t51 264q0 139 -51 263t-141 216.5t-212 145.5t-263.5 53t-263 -53t-212 -145.5t-141.5 -216.5t-51 -263zM344 692q0 121 39 211t106.5 150.5t158.5 91.5t196 31q98 0 167.5 -13.5t112.5 -38.5q-20 -43 -24 -94l2 -2l-36 32 q-22 19 -52.5 36.5t-71.5 30t-92 12.5q-74 0 -144.5 -20.5t-125 -71t-87 -137.5t-32.5 -220q0 -92 25.5 -169t74.5 -134t120 -89t163 -32q43 0 84 10.5t76.5 25.5t65.5 33.5t50 37.5q-4 -16 -5 -32.5t-1 -31.5q-41 -25 -117.5 -52.5t-175.5 -27.5q-104 0 -192 33 t-151.5 93.5t-98.5 145.5t-35 191zM1120 373l6 18l11 -14q-8 0 -11 2z" />
<glyph unicode="&#xaa;" horiz-adv-x="698" d="M68 918q0 70 39.5 105.5t156.5 57.5q72 12 112 21.5t60.5 17.5t24.5 18.5t4 28.5q0 53 -12.5 87t-34 52.5t-50 24.5t-61.5 6q-66 0 -106.5 -27.5t-57.5 -54.5h-8v62q41 23 89 41t128 18q33 0 70 -7t67.5 -28.5t51 -58.5t20.5 -94q0 -41 -2 -91l-4 -96q-2 -35 -3 -65.5 t-1 -50.5q0 -47 19.5 -63.5t37.5 -16.5q8 0 14.5 2t14.5 6v-18q-14 -8 -36.5 -14.5t-51.5 -6.5q-37 0 -56.5 31t-23.5 72q-53 -49 -104.5 -76t-114.5 -27q-31 0 -63.5 7t-58.5 23.5t-43 44.5t-17 69zM176 930q0 -57 36 -87t89 -30t95 29.5t69 58.5v211q-23 -10 -51.5 -17.5 t-57.5 -11.5q-33 -6 -64.5 -14t-57 -24.5t-42 -44t-16.5 -70.5z" />
<glyph unicode="&#xab;" horiz-adv-x="739" d="M45 471l250 371q25 -31 57 -43l-225 -326l109 -167l108 -169q-16 -4 -34.5 -15t-28.5 -26l-119 188zM346 471l250 371q25 -31 57 -43l-223 -326l108 -167l107 -169q-16 -4 -34.5 -15t-28.5 -26l-118 188z" />
<glyph unicode="&#xac;" horiz-adv-x="1130" d="M6 674v86h1032v-535h-88v449h-944z" />
<glyph unicode="&#xad;" horiz-adv-x="688" d="M94 416v108h498v-108h-498z" />
<glyph unicode="&#xae;" horiz-adv-x="1587" d="M59 696.5q0 151.5 57.5 285.5t157 233.5t233.5 157t285.5 57.5t285.5 -57.5t233.5 -157t157 -233.5t57.5 -285.5t-57.5 -286t-157 -233.5t-233.5 -156.5t-285.5 -57.5t-285.5 57.5t-233.5 156.5t-157 233.5t-57.5 286zM125 696q0 -141 51 -264t141.5 -215t212 -145.5 t263 -53.5t263.5 53.5t212 145.5t141 215t51 264q0 139 -51 263t-141 216.5t-212 145.5t-263.5 53t-263 -53t-212 -145.5t-141.5 -216.5t-51 -263zM514 1159q35 -4 77 -6t81 -2q20 0 40.5 1t43.5 3l41 4q20 2 43 2q104 0 178 -48t74 -148q0 -61 -31 -107.5t-76 -77t-96 -47 t-92 -18.5l56 -72l62 -80l134 -173q68 -85 116 -130q-35 6 -59 6q-43 0 -76 -8l-161 220l-175 222h-80v-155q0 -68 3.5 -143.5t7.5 -141.5q-16 4 -27.5 5t-28.5 1q-31 0 -55 -6q2 16 1 22.5t1 22.5q4 59 7 115.5t3 116.5v354q0 65 -4 139t-8 129zM614 739q12 -4 39 -7t58 -3 q55 0 104 12.5t87 39t59.5 68.5t21.5 101q0 86 -56.5 134.5t-146.5 48.5q-37 0 -76.5 -3.5t-76.5 -9.5l-9 -99q-4 -50 -4 -106v-176zM1165 260q6 0 23 -4l-12 -10v6q-5 2 -11 8z" />
<glyph unicode="&#xaf;" horiz-adv-x="737" d="M94 1255v86h547v-86h-547z" />
<glyph unicode="&#xb0;" horiz-adv-x="716" d="M66 1085q0 59 22.5 112.5t62 93.5t93 62.5t113 22.5t112.5 -22.5t93 -62.5t62.5 -93t22.5 -113q0 -61 -22.5 -113t-62.5 -92t-93 -62.5t-112.5 -22.5t-113 22.5t-93 62.5t-62 92t-22.5 113zM121 1085.5q0 -49.5 18.5 -92.5t50 -74.5t74.5 -50t92.5 -18.5t92.5 18.5 t74.5 50t50 74.5t18.5 92.5t-18.5 91.5t-50 73.5t-74.5 50t-92.5 18.5t-92.5 -18.5t-74.5 -50t-50 -73.5t-18.5 -91.5z" />
<glyph unicode="&#xb1;" horiz-adv-x="1069" d="M18 0v88h1033v-88h-1033zM18 565v88h474v377h86v-377h473v-88h-473v-379h-86v379h-474z" />
<glyph unicode="&#xb2;" horiz-adv-x="690" d="M59 541v14q20 20 40 37l40 35h-2l150 143q68 66 113.5 128.5t71.5 124.5t26 136q0 98 -48.5 142.5t-113.5 44.5q-43 0 -74 -13.5t-53.5 -33t-34.5 -43t-18 -44.5l-37 52q43 59 99 85.5t136 26.5q111 0 185.5 -50t74.5 -161q0 -49 -14 -91t-58 -98t-126 -135t-219 -200 l4 -25h99q54 0 109 1l107 3q53 1 98 5q-4 -12 -4 -22v-19v-20q0 -9 2 -19q-72 2 -136 4t-138 2q-72 0 -139.5 -3t-139.5 -7zM156 1210v2l4 -4z" />
<glyph unicode="&#xb3;" horiz-adv-x="665" d="M63 578l17 59q25 -25 71 -47.5t111 -22.5q100 0 160.5 59.5t60.5 149.5q0 55 -15 92t-41 59.5t-57.5 32t-64.5 9.5q-20 0 -37.5 -2t-31.5 -6q4 10 2 10t-2 10q0 8 1 12t-1 11q14 -4 27 -5.5t26 -1.5q47 0 77.5 18.5t48 47.5t24.5 63.5t7 65.5q0 78 -45 116t-104 38 q-55 0 -97 -29t-61 -62l2 -4q-8 14 -12 28.5t-10 29.5q27 23 75 45t132 22q96 0 162.5 -42t66.5 -132q0 -43 -16.5 -76.5t-43 -58.5t-58 -41t-62.5 -22v-21q35 -4 73.5 -14.5t72.5 -32t56.5 -56t22.5 -87.5q0 -117 -91 -185.5t-243 -68.5q-66 0 -117 12.5t-86 26.5zM74 643 l8 -4h-2v-2z" />
<glyph unicode="&#xb4;" horiz-adv-x="577" d="M84 1161l287 291q20 20 41.5 33.5t42.5 13.5q16 0 37.5 -13t21.5 -42q0 -33 -24.5 -53.5t-47.5 -36.5l-150 -96l-151 -97h-57z" />
<glyph unicode="&#xb5;" horiz-adv-x="944" d="M92 -555q0 74 1 133t3 125q2 94 3 191.5t1 216.5q0 152 -1 276.5t-3 237.5q-2 90 -2 172v164q18 -4 39 -6.5t39 -2.5t35.5 2t36.5 7q-10 -123 -14.5 -267.5t-4.5 -298.5q0 -111 19.5 -169t48.5 -89q31 -35 77 -58.5t109 -23.5q92 0 152.5 40t89.5 100q14 33 23.5 59.5 t13.5 68.5t5 113.5t1 194.5v170q0 86 -4 160q18 -4 35.5 -6.5t40 -2.5t41 2t34.5 7q-4 -82 -7 -158t-5 -152t-2 -152v-159q0 -90 1 -176t5 -172q-16 4 -34.5 6t-34.5 2q-35 0 -68 -6q3 36 3 79v22q-1 56 -1 100q-66 -111 -155 -168.5t-187 -57.5q-53 0 -103.5 15.5 t-97.5 60.5q0 -156 3 -309.5t16 -288.5q-35 6 -74 6q-23 0 -41.5 -2t-36.5 -6z" />
<glyph unicode="&#xb6;" horiz-adv-x="1015" d="M29 1020q0 188 107.5 280.5t295.5 92.5h531v-33l-156 -25v-1575h-53v1569l-154 -24v-1545h-55v844q-133 0 -229.5 31t-161 85t-95 131t-30.5 169z" />
<glyph unicode="&#xb7;" horiz-adv-x="374" d="M70 625q0 47 33.5 80.5t80.5 33.5t81 -33.5t34 -80.5t-34 -80t-81 -33t-80.5 33t-33.5 80z" />
<glyph unicode="&#xb8;" horiz-adv-x="503" d="M47 -434l19 45q25 -8 62.5 -14.5t82.5 -6.5q55 0 95 26t40 73q0 51 -35 71.5t-82 20.5q-29 0 -51 -2t-35 -8q-4 2 -6 4q18 53 41 102t41 103h49l-53 -160q45 18 76 18q78 0 120 -38t42 -99q0 -41 -19.5 -72.5t-51.5 -52t-75 -31t-90 -10.5q-55 0 -98 10.5t-72 20.5z" />
<glyph unicode="&#xb9;" horiz-adv-x="468" d="M72 1241v8q74 25 151.5 56.5t145.5 70.5h10q-6 -78 -8 -156.5t-2 -158.5v-207q0 -78 2 -152.5t8 -156.5q-31 6 -57 6q-29 0 -60 -6q6 86 7 157.5t1 151.5v426l-18 4q-35 -16 -72 -36l-74 -40l-16 19.5t-18 13.5z" />
<glyph unicode="&#xba;" horiz-adv-x="808" d="M82 1073q0 82 27.5 140.5t73.5 94t104.5 52t118.5 16.5q57 0 114.5 -16.5t102.5 -52t73.5 -94t28.5 -140.5t-28.5 -138t-73.5 -92t-102.5 -52.5t-114.5 -16.5q-59 0 -118 16.5t-105 52.5t-73.5 92t-27.5 138zM199 1073q0 -49 10 -97t34.5 -86t63.5 -61.5t99 -23.5 q57 0 96 23.5t62.5 61.5t33.5 86t10 97q0 51 -10 99.5t-33.5 87t-62.5 62.5t-96 24q-59 0 -98.5 -24t-64 -62.5t-34.5 -87t-10 -99.5z" />
<glyph unicode="&#xbb;" horiz-adv-x="741" d="M86 143l223 324l-215 338q16 4 34.5 15t29.5 26l117 -189l118 -188l-125 -184l-125 -185q-24 31 -57 43zM387 143l225 324l-217 338q16 4 35 15t29 26l119 -189l116 -188l-124 -184l-126 -185q-24 31 -57 43z" />
<glyph unicode="&#xbc;" horiz-adv-x="1560" d="M43 1241v8q74 25 151.5 56.5t145.5 70.5h10q-6 -78 -8 -156.5t-2 -158.5v-207q0 -78 2 -152.5t8 -156.5q-31 6 -57 6q-29 0 -60 -6q6 86 7.5 157.5t1.5 151.5v426l-19 4q-74 -35 -145 -76q-8 10 -16.5 19.5t-18.5 13.5zM395 -49l563 1446q18 -6 43 -6q20 0 29 2 l-282 -724l-281 -722q-18 6 -41 6t-31 -2zM881 217v31l216 280l218 283q20 -6 49 -6q12 0 21.5 1t19.5 3q-8 -135 -8 -265v-263q29 0 61.5 2t54.5 6q-4 -20 -4 -33q0 -16 4 -37q-43 6 -116 6q0 -55 1 -115.5t5 -115.5q-16 4 -27.5 5t-28 1t-27.5 -1t-28 -5q4 53 6 111.5 t2 119.5q-59 0 -120 -1l-118 -2q-56 -1 -103 -2t-78 -3zM985 303l4 -22h311v411l-4 37l-48.5 -63.5t-49.5 -63.5l-110.5 -145.5t-102.5 -153.5z" />
<glyph unicode="&#xbd;" horiz-adv-x="1533" d="M43 1241v8q74 25 151.5 56.5t145.5 70.5h10q-6 -78 -8 -156.5t-2 -158.5v-207q0 -78 2 -152.5t8 -156.5q-31 6 -57 6q-29 0 -60 -6q6 86 7.5 157.5t1.5 151.5v426l-19 4q-35 -16 -71 -36l-74 -40q-8 10 -16.5 19.5t-18.5 13.5zM389 -49l563 1446q18 -6 43 -6q20 0 29 2 l-283 -724l-280 -722q-18 6 -41 6h-17q-8 0 -14 -2zM934 4q20 20 40.5 36.5t39.5 37.5h-2l149 143q68 66 114 127.5t71.5 124t25.5 135.5q0 98 -48 143.5t-114 45.5q-43 0 -73.5 -13.5t-53 -34t-35 -43t-18.5 -42.5l-35 51q41 59 97.5 84.5t136.5 25.5q111 0 185.5 -50 t74.5 -161q0 -49 -14.5 -91t-58.5 -98t-126 -135t-219 -198l4 -26h100q54 0 108 1t107.5 3t98.5 6q-4 -14 -4 -24v-19v-20q0 -9 2 -19q-72 2 -136.5 4t-138.5 2q-72 0 -139 -3t-139 -7v14zM1030 662v2l4 -5z" />
<glyph unicode="&#xbe;" horiz-adv-x="1644" d="M37 578l16 59q25 -25 70 -47.5t110 -22.5q102 0 162 59.5t60 149.5q0 55 -15.5 92t-41 59.5t-57.5 32t-65 9.5q-20 0 -36.5 -2t-30.5 -6q4 10 2 10t-2 10q0 8 1 12t-1 11q14 -4 26.5 -5.5t24.5 -1.5q47 0 78 18.5t48 47.5t24.5 63.5t7.5 65.5q0 78 -45 116t-105 38 q-53 0 -96 -29t-61 -62l2 -4q-8 14 -12.5 28.5t-10.5 29.5q27 23 76 45t131 22q96 0 162.5 -42t66.5 -132q0 -43 -16 -76.5t-43 -58.5t-57.5 -41t-61.5 -22v-21q33 -4 73 -14.5t72.5 -32t55 -56t22.5 -87.5q0 -117 -91 -185.5t-242 -68.5q-66 0 -116 12.5t-85 26.5zM47 643 l8 -4h-2v-2zM504 -49l563 1446q18 -6 41 -6q20 0 29 2l-281 -724l-283 -722q-18 6 -41 6q-20 0 -28 -2zM963 217v31l216 280l218 283q20 -6 49 -6q14 0 23.5 1t19.5 3q-8 -135 -8 -265v-263q29 0 60.5 2t53.5 6q-4 -20 -4 -33q0 -16 4 -37q-43 6 -114 6q0 -55 1 -115.5 t5 -115.5q-31 6 -57 6q-16 0 -27.5 -1t-28.5 -5q4 53 6 111.5t2 119.5q-59 0 -120.5 -1t-116.5 -2t-103 -2t-79 -3zM1069 303l4 -22h309v411l-4 37l-48 -63l-50 -64l-110 -145q-54 -74 -101 -154z" />
<glyph unicode="&#xbf;" horiz-adv-x="585" d="M35 -207q0 57 17.5 106.5t47 92.5t66.5 83l74 77q66 66 116 130t50 144q0 20 -7.5 44t-23 44.5t-38 32.5t-50.5 12q-18 0 -36 -5t-30 -9q10 16 19 43q10 4 25.5 6t35.5 2q25 0 60.5 -11.5t69.5 -38t58.5 -67.5t24.5 -102q0 -53 -16.5 -97t-43 -84t-61.5 -77l-69 -72 q-66 -66 -117 -131.5t-51 -151.5q0 -41 16 -74.5t44 -57t60.5 -36t67.5 -12.5q53 0 100.5 22.5t83.5 61.5q4 -25 3 -40t4 -38q-41 -23 -87.5 -42t-115.5 -19q-72 0 -127 21.5t-93 57.5t-57.5 84t-19.5 101zM215 543q2 0 3 1t3 1q0 -2 -1 -2t-1 -2zM227 874q0 45 32 77t75 32 q45 0 76.5 -31.5t31.5 -77.5q0 -43 -31.5 -75.5t-76.5 -32.5q-43 0 -75 32.5t-32 75.5z" />
<glyph unicode="&#xc0;" horiz-adv-x="1355" d="M49 -6l324 716l315 720h23l74 -180l81 -193l133 -318l130 -303l114 -259q51 -116 84 -183q-47 6 -92 6q-25 0 -52.5 -2t-49.5 -6q-12 43 -31 94l-40 108l-45 112l-44 110q-12 33 -27 67l-26 64q-68 2 -140.5 3t-140.5 1q-66 0 -132.5 -1t-129.5 -3l-62 -153 q-31 -77 -56 -148l-48 -137q-23 -66 -37 -117q-16 4 -32.5 6t-35.5 2q-30 0 -57 -6zM373 1802q0 29 20.5 42.5t36.5 13.5q20 0 43 -13.5t43 -34.5l142 -146l145 -144h-60l-301 192q-23 14 -46 34.5t-23 55.5zM408 621q20 0 62 -1.5t67 -1.5q29 -2 56 -2h56q57 0 124 1t124 4 l-246 567z" />
<glyph unicode="&#xc1;" horiz-adv-x="1357" d="M31 -6l323 716l316 720h22l75 -180l81 -193l133 -318l130 -303l114 -259q51 -116 84 -183q-47 6 -92 6q-25 0 -52.5 -2t-50.5 -6q-12 43 -31 94l-40 108l-45 112l-44 110q-12 33 -26 67l-27 64q-68 2 -140.5 3t-139.5 1q-66 0 -132.5 -1t-130.5 -3l-61 -153 q-31 -77 -56 -148l-48 -137q-23 -66 -37 -117q-16 4 -33 6t-35 2q-30 0 -57 -6zM389 621q20 0 62.5 -1.5t66.5 -1.5q29 -2 56 -2h57q57 0 123.5 1t124.5 4l-246 567zM553 1520l287 290q20 20 42.5 34t43.5 14q16 0 36.5 -13.5t20.5 -42.5q0 -35 -23.5 -55.5t-46.5 -34.5 l-151 -97l-150 -95h-59z" />
<glyph unicode="&#xc2;" horiz-adv-x="1368" d="M45 -6l324 716l315 720h23l74 -180l81 -193l133 -318l130 -303l114 -259q51 -116 84 -183q-47 6 -92 6q-25 0 -52.5 -2t-50.5 -6q-12 43 -30 94l-40 108l-45 112l-44 110q-12 33 -27 67l-27 64q-68 2 -140.5 3t-139.5 1q-66 0 -132.5 -1t-129.5 -3l-62 -153 q-31 -77 -56 -148l-48 -137q-23 -66 -37 -117q-16 4 -32.5 6t-35.5 2q-30 0 -57 -6zM379 1520l119 161l120 164h127l122 -164l120 -161h-51l-254 221l-126 -111l-126 -110h-51zM403 621q20 0 62.5 -1.5t66.5 -1.5q29 -2 57 -2h56q57 0 124 1t124 4l-246 567z" />
<glyph unicode="&#xc3;" horiz-adv-x="1355" d="M39 -6l323 716l316 720h22l75 -180l81 -193l133 -318l130 -303l114 -259q51 -116 84 -183q-47 6 -92 6q-25 0 -52.5 -2t-50.5 -6q-12 43 -30 94l-40 108l-45 112l-44 110q-12 33 -27 67l-27 64q-68 2 -140.5 3t-139.5 1q-66 0 -132.5 -1t-129.5 -3l-62 -153 q-31 -77 -56 -148l-48 -137q-23 -66 -37 -117q-16 4 -32.5 6t-35.5 2q-30 0 -57 -6zM348 1571q6 35 21.5 68.5t40 61.5t59.5 45t82 17q35 0 64.5 -9t82.5 -36q61 -29 88 -39t54 -10q43 0 76.5 35t50.5 68h39q-6 -25 -19.5 -60t-38 -66.5t-62.5 -53t-93 -21.5q-29 0 -64 10 t-82 35q-59 33 -87 42t-52 9q-51 0 -75.5 -22.5t-43.5 -73.5h-41zM397 621q20 0 62.5 -1.5t66.5 -1.5q29 -2 57 -2h56q57 0 123.5 1t124.5 4l-246 567z" />
<glyph unicode="&#xc4;" horiz-adv-x="1353" d="M39 -6l323 716l316 720h22l75 -180l81 -193l133 -318l130 -303l114 -259q51 -116 84 -183q-47 6 -92 6q-25 0 -52.5 -2t-50.5 -6q-12 43 -30 94l-40 108l-45 112l-44 110q-12 33 -27 67l-27 64q-68 2 -140.5 3t-139.5 1q-66 0 -132.5 -1t-129.5 -3l-62 -153 q-31 -77 -56 -148l-48 -137q-23 -66 -37 -117q-16 4 -32.5 6t-35.5 2q-30 0 -57 -6zM377 1671q0 39 27.5 66.5t68.5 27.5q39 0 66.5 -27.5t27.5 -66.5q0 -41 -27.5 -68.5t-66.5 -27.5q-41 0 -68.5 27.5t-27.5 68.5zM397 621q20 0 62.5 -1.5t66.5 -1.5q29 -2 57 -2h56 q57 0 123.5 1t124.5 4l-246 567zM786 1671q0 39 28 66.5t67 27.5q41 0 68.5 -27.5t27.5 -66.5q0 -41 -27.5 -68.5t-68.5 -27.5q-39 0 -67 27.5t-28 68.5z" />
<glyph unicode="&#xc5;" horiz-adv-x="1366" d="M45 -6l324 716l315 720h23l74 -180l81 -193l133 -318l130 -303l114 -259q51 -116 84 -183q-47 6 -92 6q-25 0 -52.5 -2t-50.5 -6q-12 43 -30 94l-40 108l-45 112l-44 110q-12 33 -27 67l-27 64q-68 2 -140.5 3t-139.5 1q-66 0 -132.5 -1t-129.5 -3l-62 -153 q-31 -77 -56 -148l-48 -137q-23 -66 -37 -117q-16 4 -32.5 6t-35.5 2q-30 0 -57 -6zM403 621q20 0 62.5 -1.5t66.5 -1.5q29 -2 57 -2h56q57 0 124 1t124 4l-246 567zM481 1688q0 84 58.5 142t144.5 58q84 0 142.5 -58t58.5 -142q0 -41 -15.5 -78t-43 -64.5t-64.5 -44 t-80 -16.5q-41 0 -78 16.5t-64.5 44t-43 64.5t-15.5 78zM547 1688q0 -57 39 -96.5t96 -39.5q59 0 98 39t39 97q0 55 -39 95t-96 40q-59 0 -98 -40t-39 -95z" />
<glyph unicode="&#xc6;" horiz-adv-x="1697" d="M33 -6l208 305l233 355l242 378l234 371q88 -4 171 -7t173 -3q84 0 168 2t164 6q-8 -25 -8 -53q0 -12 2 -25.5t6 -24.5q-29 6 -62.5 10.5t-88 8.5t-136.5 6t-209 2q0 -23 -1 -49.5t-3 -48.5q-6 -139 -6 -275v-182q113 0 189.5 1t127 3t82 4t56.5 4h8q-6 -23 -6 -45 q0 -25 6 -45h-10q-25 2 -56.5 4t-82 4t-126 3.5t-188.5 1.5v-222q0 -154 6 -307q2 -25 3 -54.5t1 -55.5q215 0 334 6t176 14q-6 -25 -6 -47.5t6 -46.5q-92 4 -173 6t-169 2t-171 -3t-171 -7q12 129 13.5 258t1.5 264l-498 12q-84 -137 -156 -270l-135 -262q-35 8 -78 8 q-34 0 -71 -6zM508 590l463 -12v684h-39z" />
<glyph unicode="&#xc7;" horiz-adv-x="1288" d="M39 696q0 174 56.5 310.5t157.5 230.5t242.5 143.5t311.5 49.5q129 0 239.5 -27t196.5 -66q-14 -31 -22 -71l-15 -74v-6q-23 25 -59.5 57.5t-86.5 61t-114.5 49t-138.5 20.5q-125 0 -231.5 -40t-185.5 -124t-124 -212t-45 -302q0 -176 45 -303t124 -211t185.5 -124 t231.5 -40q72 0 134.5 17.5t115.5 43t95 54.5l73 51q-10 -55 -17 -108q-20 -16 -60 -36t-95.5 -37t-123 -28.5t-143.5 -11.5h-32l-56 -156q49 18 80 19q78 0 120 -38t42 -99q0 -41 -19.5 -73t-52 -52.5t-75.5 -30.5t-91 -10q-53 0 -96 10t-74 21q4 14 10.5 23t10.5 22 q27 -8 63.5 -14.5t79.5 -6.5q57 0 96 25.5t39 72.5q0 51 -33.5 72t-80.5 21q-66 0 -86 -11q-2 0 -2 2l-2 2l78 199q-145 14 -268.5 70.5t-211.5 150.5t-137 223t-49 291zM1225 184q0 6 2 11l2 -11l-2 2q-2 0 -2 -2z" />
<glyph unicode="&#xc8;" horiz-adv-x="823" d="M80 1403q94 -4 181 -7t181 -3q92 0 179.5 3t177.5 7q-2 -12 -3 -24.5t-1 -28.5q0 -14 1 -26.5t3 -25.5q-29 2 -50 5l-44 4q-43 4 -89.5 7t-99.5 6t-116.5 4t-143.5 1q0 -27 -1 -55.5t-3 -55.5q-2 -37 -3 -76.5t-1 -86.5t1 -94.5t1 -88.5v-102q92 0 164.5 1t133 4t110 6 t94.5 7q-2 -12 -3 -24t-1 -26.5t1 -26t3 -23.5q-55 4 -126 7t-142.5 5t-134 3t-99.5 1q0 -18 -1 -40.5t-1 -58.5v-87v-125q0 -119 1 -201t3 -122q68 0 144.5 1t151.5 3t142.5 7t118.5 13q-2 -12 -2 -27v-24v-25q0 -12 2 -24q-92 4 -178 7t-182 3q-94 0 -184.5 -3t-184.5 -7 q8 135 13 265t5 265v357q0 133 -5 264t-13 262zM123 1802q0 29 20.5 42.5t36.5 13.5q20 0 43 -13.5t43 -34.5l143 -146l144 -144h-59l-301 192q-23 14 -46.5 34.5t-23.5 55.5z" />
<glyph unicode="&#xc9;" horiz-adv-x="821" d="M57 1403q94 -4 181.5 -7t181.5 -3q92 0 179 3t177 7q-2 -12 -3 -24.5t-1 -28.5q0 -14 1 -26.5t3 -25.5q-29 2 -50 5l-44 4q-43 4 -89 7t-99.5 6t-117 4t-143.5 1q0 -27 -1 -55.5t-3 -55.5q-2 -37 -3 -76.5t-1 -86.5t1 -94.5t1 -88.5v-102q92 0 165 1t133.5 4t109.5 6 t94 7q-2 -12 -3 -24t-1 -26.5t1 -26t3 -23.5q-55 4 -126 7t-142.5 5t-134 3t-99.5 1q0 -18 -1 -40.5t-1 -58.5v-87v-125q0 -119 1 -201t3 -122q68 0 145 1t151.5 3t142 7t118.5 13q-2 -12 -2 -27v-24v-25q0 -12 2 -24q-92 4 -178 7t-182 3q-94 0 -184 -3t-185 -7 q8 135 13.5 265t5.5 265v357q0 133 -5.5 264t-13.5 262zM299 1520l287 290q20 20 42.5 34t43.5 14q16 0 36.5 -13.5t20.5 -42.5q0 -35 -23.5 -55.5t-46.5 -34.5l-151 -97l-150 -95h-59z" />
<glyph unicode="&#xca;" horiz-adv-x="835" d="M76 1403q94 -4 181 -7t181 -3q92 0 179.5 3t177.5 7q-2 -12 -3 -24.5t-1 -28.5q0 -14 1 -26.5t3 -25.5q-29 2 -51 5l-44 4q-43 4 -89 7t-99 6t-116.5 4t-143.5 1q0 -27 -1 -55.5t-3 -55.5q-2 -37 -3 -76.5t-1 -86.5t1 -94.5t1 -88.5v-102q92 0 164.5 1t133 4t109.5 6 t95 7q-2 -12 -3.5 -24t-1.5 -26.5t1 -26t4 -23.5q-55 4 -126 7t-142.5 5t-134 3t-99.5 1q0 -18 -1 -40.5t-1 -58.5v-87v-125q0 -119 1 -201t3 -122q68 0 144.5 1t151 3t142.5 7t119 13q-2 -12 -2 -27v-24v-25q0 -12 2 -24q-92 4 -178 7t-183 3q-94 0 -184 -3t-184 -7 q8 135 13 265t5 265v357q0 133 -5 264t-13 262zM129 1520l119 161l119 164h129l120 -164l121 -161h-51l-254 221l-126 -111l-126 -110h-51z" />
<glyph unicode="&#xcb;" horiz-adv-x="833" d="M76 1403q94 -4 181 -7t181 -3q92 0 179.5 3t177.5 7q-2 -12 -3 -24.5t-1 -28.5q0 -14 1 -26.5t3 -25.5q-29 2 -51 5l-44 4q-43 4 -89 7t-99 6t-116.5 4t-143.5 1q0 -27 -1 -55.5t-3 -55.5q-2 -37 -3 -76.5t-1 -86.5t1 -94.5t1 -88.5v-102q92 0 164.5 1t133 4t109.5 6 t95 7q-2 -12 -3.5 -24t-1.5 -26.5t1 -26t4 -23.5q-55 4 -126 7t-142.5 5t-134 3t-99.5 1q0 -18 -1 -40.5t-1 -58.5v-87v-125q0 -119 1 -201t3 -122q68 0 144.5 1t151 3t142.5 7t119 13q-2 -12 -2 -27v-24v-25q0 -12 2 -24q-92 4 -178 7t-183 3q-94 0 -184 -3t-184 -7 q8 135 13 265t5 265v357q0 133 -5 264t-13 262zM133 1671q0 39 27.5 66.5t68.5 27.5q39 0 67 -27.5t28 -66.5q0 -41 -28 -68.5t-67 -27.5q-41 0 -68.5 27.5t-27.5 68.5zM543 1671q0 39 27.5 66.5t66.5 27.5q41 0 68.5 -27.5t27.5 -66.5q0 -41 -27.5 -68.5t-68.5 -27.5 q-39 0 -66.5 27.5t-27.5 68.5z" />
<glyph unicode="&#xcc;" horiz-adv-x="520" d="M23 1802q0 29 20 42.5t37 13.5q20 0 41.5 -13.5t44.5 -34.5l142 -146l145 -144h-60l-301 192q-23 14 -46 34.5t-23 55.5zM244 -8q6 135 11 263t5 263v356q0 133 -5 263.5t-11 263.5q23 -4 45 -6t47 -2q23 0 45 2t45 6q-6 -135 -11 -263t-5 -264v-356q0 -135 5 -264 t11 -262q-23 4 -45.5 6t-44.5 2q-25 0 -47 -2t-45 -6z" />
<glyph unicode="&#xcd;" horiz-adv-x="518" d="M68 1520l286 290q18 16 42 32t42 16q16 0 38 -13.5t22 -42.5q0 -35 -24.5 -55.5t-47.5 -34.5l-151 -97l-150 -95h-57zM90 -8q6 135 11 263t5 263v356q0 133 -5 263.5t-11 263.5q23 -4 45.5 -6t44.5 -2q25 0 47.5 2t44.5 6q-6 -135 -11 -263t-5 -264v-356q0 -135 5 -264 t11 -262q-23 4 -45 6t-47 2q-23 0 -45 -2t-45 -6z" />
<glyph unicode="&#xce;" horiz-adv-x="688" d="M39 1520l119 161l121 164h127l121 -164l120 -161h-51l-254 221l-126 -111l-126 -110h-51zM250 -8q6 135 11 263t5 263v356q0 133 -5 263.5t-11 263.5q23 -4 46 -6t46 -2t46.5 2t45.5 6q-6 -135 -11 -263t-5 -264v-356q0 -135 5 -264t11 -262q-23 4 -46 6t-46 2t-46 -2 t-46 -6z" />
<glyph unicode="&#xcf;" horiz-adv-x="653" d="M27 1671q0 39 27.5 66.5t68.5 27.5q39 0 66.5 -27.5t27.5 -66.5q0 -41 -27.5 -68.5t-66.5 -27.5q-41 0 -68.5 27.5t-27.5 68.5zM233 -8l11.5 263t5.5 263v356q0 133 -5 263.5t-12 263.5q23 -4 46.5 -6t46 -2t46 2t46.5 6l-11.5 -263t-5.5 -264v-356q0 -135 5.5 -264 l11.5 -262q-23 4 -46.5 6t-46 2t-46 -2t-46.5 -6zM436 1671q0 39 28 66.5t66 27.5q41 0 69 -27.5t28 -66.5q0 -41 -28 -68.5t-69 -27.5q-39 0 -66.5 27.5t-27.5 68.5z" />
<glyph unicode="&#xd0;" horiz-adv-x="1597" d="M55 756q2 10 2 30.5t-2 30.5q46 -3 86 -3h20q48 1 95 1v59q0 133 -5 264.5t-11 264.5q78 -4 151.5 -7t151.5 -3q41 0 78.5 1t76.5 3l80 4q39 2 78 2q180 0 308 -47t210 -134t120 -213t38 -284q0 -205 -70.5 -345t-180.5 -227t-242 -125t-253 -38q-35 0 -69.5 1t-69.5 3 l-69 4q-35 2 -70 2q-66 0 -134.5 -2t-133.5 -6q6 135 11 263t5 263v240q-45 0 -96 1h-21q-41 0 -84 -3zM405 815q98 0 200 1t196 5q-2 -10 -2 -17v-18v-19q0 -9 2 -17q-96 4 -195.5 6t-200.5 2v-240q0 -111 3.5 -226.5t9.5 -223.5q47 -10 125 -16.5t157 -6.5q117 0 233 27.5 t209 103.5t150.5 208t57.5 341q0 184 -45 302t-125 186.5t-190.5 95t-239.5 26.5q-98 0 -182.5 -6t-149.5 -14q-6 -100 -9.5 -214t-3.5 -227v-59z" />
<glyph unicode="&#xd1;" horiz-adv-x="1353" d="M68 -6q4 33 9 94.5t9 138t8 164.5t7 175t5.5 169t2.5 148q0 195 -1.5 335t-5.5 212h19l42 -47l44 -48l258 -280l267 -289l251 -265l205 -212v283q0 146 -1 290t-5 281t-11 256q33 -6 60 -6q16 0 27.5 1t25.5 5q-4 -53 -10 -144.5t-10 -191.5l-7.5 -194.5t-3.5 -151.5 q0 -78 1 -191l2 -225q1 -113 2.5 -206t1.5 -132h-15l-224 257l-241 265l-248 268l-245 261l-105 114v-51q-2 -59 -4 -153.5t-2 -243.5q0 -61 1 -157.5t4 -198t5 -191.5t7 -139q-12 4 -30 5t-32 1q-32 0 -63 -6zM381 1571q6 35 22.5 68.5t41 61.5t59.5 45t80 17q37 0 65.5 -9 t81.5 -36q61 -29 88 -39t53 -10q43 0 77 35t50 68h41q-6 -25 -19 -60t-39 -66.5t-63.5 -53t-93.5 -21.5q-29 0 -63.5 10t-81.5 35q-59 33 -87 42t-52 9q-49 0 -75 -22.5t-44 -73.5h-41z" />
<glyph unicode="&#xd2;" horiz-adv-x="1624" d="M49 696q0 174 56.5 310.5t158 230.5t241.5 143.5t310 49.5t311.5 -49.5t242.5 -143.5t157.5 -230.5t56.5 -310.5t-56.5 -310t-157.5 -230.5t-242.5 -143.5t-311.5 -49t-310 49t-241.5 143.5t-158 230.5t-56.5 310zM231 696q0 -176 45.5 -303t123 -211t185 -124t230.5 -40 q125 0 231.5 40t185.5 124t124 211t45 303q0 174 -45 302t-124 212t-185.5 124t-231.5 40q-123 0 -230.5 -40t-185 -124t-123 -212t-45.5 -302zM502 1802q0 29 20.5 42.5t36.5 13.5q20 0 43 -13.5t43 -34.5l142 -146l145 -144h-60l-301 192q-23 14 -46 34.5t-23 55.5z" />
<glyph unicode="&#xd3;" horiz-adv-x="1624" d="M41 696q0 174 56.5 310.5t157.5 230.5t241.5 143.5t310.5 49.5t311.5 -49.5t242.5 -143.5t157.5 -230.5t56.5 -310.5t-56.5 -310t-157.5 -230.5t-242.5 -143.5t-311.5 -49t-310.5 49t-241.5 143.5t-157.5 230.5t-56.5 310zM223 696q0 -176 45 -303t123 -211t185.5 -124 t230.5 -40q125 0 231.5 40t185.5 124t124 211t45 303q0 174 -45 302t-124 212t-185.5 124t-231.5 40q-123 0 -230.5 -40t-185.5 -124t-123 -212t-45 -302zM692 1520l287 290q20 20 42.5 34t43.5 14q16 0 36.5 -13.5t20.5 -42.5q0 -35 -23.5 -55.5t-45.5 -34.5l-152 -97 l-149 -95h-60z" />
<glyph unicode="&#xd4;" horiz-adv-x="1632" d="M49 696q0 174 56.5 310.5t158 230.5t241.5 143.5t310 49.5t311.5 -49.5t242.5 -143.5t157.5 -230.5t56.5 -310.5t-56.5 -310t-157.5 -230.5t-242.5 -143.5t-311.5 -49t-310 49t-241.5 143.5t-158 230.5t-56.5 310zM231 696q0 -176 45.5 -303t123 -211t185 -124t230.5 -40 q125 0 231.5 40t185.5 124t124 211t45 303q0 174 -45 302t-124 212t-185.5 124t-231.5 40q-123 0 -230.5 -40t-185 -124t-123 -212t-45.5 -302zM512 1520l119 161l121 164h127l121 -164l120 -161h-51l-254 221l-126 -111l-126 -110h-51z" />
<glyph unicode="&#xd5;" horiz-adv-x="1632" d="M49 696q0 174 56.5 310.5t158 230.5t241.5 143.5t310 49.5t311.5 -49.5t242.5 -143.5t157.5 -230.5t56.5 -310.5t-56.5 -310t-157.5 -230.5t-242.5 -143.5t-311.5 -49t-310 49t-241.5 143.5t-158 230.5t-56.5 310zM231 696q0 -176 45.5 -303t123 -211t185 -124t230.5 -40 q125 0 231.5 40t185.5 124t124 211t45 303q0 174 -45 302t-124 212t-185.5 124t-231.5 40q-123 0 -230.5 -40t-185 -124t-123 -212t-45.5 -302zM487 1571q6 35 21.5 68.5t40 61.5t59.5 45t82 17q35 0 64.5 -9t83.5 -36q61 -29 87.5 -39t53.5 -10q43 0 77 35t50 68h39 q-6 -25 -19.5 -60t-38 -66.5t-62.5 -53t-93 -21.5q-29 0 -63.5 10t-82.5 35q-59 33 -86.5 42t-52.5 9q-51 0 -75.5 -22.5t-43.5 -73.5h-41z" />
<glyph unicode="&#xd6;" horiz-adv-x="1632" d="M49 696q0 174 56.5 310.5t158 230.5t241.5 143.5t310 49.5t311.5 -49.5t242.5 -143.5t157.5 -230.5t56.5 -310.5t-56.5 -310t-157.5 -230.5t-242.5 -143.5t-311.5 -49t-310 49t-241.5 143.5t-158 230.5t-56.5 310zM231 696q0 -176 45.5 -303t123 -211t185 -124t230.5 -40 q125 0 231.5 40t185.5 124t124 211t45 303q0 174 -45 302t-124 212t-185.5 124t-231.5 40q-123 0 -230.5 -40t-185 -124t-123 -212t-45.5 -302zM516 1671q0 39 27.5 66.5t68.5 27.5q39 0 67 -27.5t28 -66.5q0 -41 -28 -68.5t-67 -27.5q-41 0 -68.5 27.5t-27.5 68.5z M926 1671q0 39 27.5 66.5t66.5 27.5q41 0 68.5 -27.5t27.5 -66.5q0 -41 -27.5 -68.5t-68.5 -27.5q-39 0 -66.5 27.5t-27.5 68.5z" />
<glyph unicode="&#xd7;" horiz-adv-x="1060" d="M88 133l383 383l-191 191l-192 192l59 59l383 -383l193 192l192 191l58 -59l-383 -383l383 -383l-29 -30l-29 -29l-385 381l-383 -381z" />
<glyph unicode="&#xd8;" horiz-adv-x="1656" d="M61 696q0 174 56.5 310.5t158 230.5t241.5 143.5t310 49.5q147 0 274.5 -38t225.5 -112q18 16 44 45l52 59q27 31 49.5 60t34.5 47q6 -8 17.5 -17.5t21.5 -15.5l-42 -42l-52 -54l-52 -56l-42 -46q113 -98 175 -238.5t62 -325.5q0 -174 -56 -310t-157.5 -230.5 t-243 -143.5t-311.5 -49q-143 0 -269 37t-224 109l-46 -52l-52 -59l-51 -59q-24 -29 -38 -50q-8 8 -18 16.5t-20 14.5l38 40l52 56l54 62l48 55q-115 96 -177.5 237.5t-62.5 325.5zM244 696q0 -154 36.5 -272.5t102.5 -204.5l872 979q-82 90 -190.5 133t-237.5 43 q-123 0 -230.5 -40t-185 -124t-122.5 -212t-45 -302zM406 188q82 -86 189 -128t232 -42t231.5 40t185.5 124t124 211t45 303q0 150 -35 266.5t-100 206.5z" />
<glyph unicode="&#xd9;" horiz-adv-x="1316" d="M66 1401q23 -4 48 -6t48 -2q43 0 78 6q-4 -47 -8.5 -120t-7.5 -164t-5 -196.5t-2 -218.5q0 -72 2 -148.5t15.5 -150t42 -139t81 -116t133 -79t199.5 -28.5q117 0 197 32.5t131 89t78.5 128t41 149.5t15.5 155t2 144q0 281 -1 437.5t-9 224.5q37 -6 74 -6q25 0 49 6 q-6 -74 -12.5 -172.5t-10.5 -211t-7 -232t-5 -232.5q-2 -135 -41 -244.5t-113.5 -185.5t-182.5 -117t-245 -41q-305 0 -444 142.5t-139 441.5q0 47 2 95t4 87q2 37 3 73t1 72q0 147 -3 269.5t-7 212.5q0 12 -1 23.5t-1 21.5zM354 1802q0 29 20.5 42.5t37.5 13.5 q20 0 42.5 -13.5t43.5 -34.5l142 -146l144 -144h-59l-301 192q-23 14 -46.5 34.5t-23.5 55.5z" />
<glyph unicode="&#xda;" horiz-adv-x="1314" d="M51 1401q23 -4 48.5 -6t47.5 -2q43 0 78 6q-4 -47 -8 -120t-7 -164t-5 -196.5t-2 -218.5q0 -72 2 -148.5t15 -150t42 -139t81 -116t133 -79t200 -28.5q117 0 196.5 32.5t131 89t79 128t41 149.5t15.5 155t2 144q0 281 -1 437.5t-10 224.5q37 -6 74 -6q25 0 49 6 q-6 -74 -12 -172.5t-10 -211t-7 -232t-5 -232.5q-2 -135 -41 -244.5t-114 -185.5t-182.5 -117t-244.5 -41q-305 0 -444.5 142.5t-139.5 441.5q0 47 2 95t4 87q2 37 3 73t1 72q0 147 -3 269.5t-7 212.5q0 12 -1 23.5t-1 21.5zM539 1520l286 290q18 16 43 32t43 16 q16 0 37 -13.5t21 -42.5q0 -35 -23.5 -55.5t-46.5 -34.5l-151 -97l-150 -95h-59z" />
<glyph unicode="&#xdb;" horiz-adv-x="1325" d="M63 1401q23 -4 48.5 -6t48.5 -2q43 0 78 6q-4 -47 -8.5 -120t-7.5 -164t-5 -196.5t-2 -218.5q0 -72 2 -148.5t15.5 -150t42 -139t81 -116t133 -79t199.5 -28.5q117 0 197 32.5t131 89t78.5 128t41 149.5t15.5 155t2 144q0 281 -1 437.5t-9 224.5q37 -6 74 -6q25 0 49 6 q-6 -74 -12.5 -172.5t-10.5 -211t-7 -232t-5 -232.5q-2 -135 -41 -244.5t-114 -185.5t-182.5 -117t-244.5 -41q-305 0 -444 142.5t-139 441.5q0 47 2 95t4 87q2 37 3 73t1 72q0 147 -3 269.5t-7 212.5q0 12 -1.5 23.5t-1.5 21.5zM362 1520l119 161l121 164h127l122 -164 l120 -161h-51l-254 221l-126 -111l-126 -110h-52z" />
<glyph unicode="&#xdc;" horiz-adv-x="1327" d="M63 1401q23 -4 48.5 -6t48.5 -2q43 0 78 6q-4 -47 -8.5 -120t-7.5 -164t-5 -196.5t-2 -218.5q0 -72 2 -148.5t15.5 -150t42 -139t81 -116t133 -79t199.5 -28.5q117 0 197 32.5t131 89t78.5 128t41 149.5t15.5 155t2 144q0 281 -1 437.5t-9 224.5q37 -6 74 -6q25 0 49 6 q-6 -74 -12.5 -172.5t-10.5 -211t-7 -232t-5 -232.5q-2 -135 -41 -244.5t-114 -185.5t-182.5 -117t-244.5 -41q-305 0 -444 142.5t-139 441.5q0 47 2 95t4 87q2 37 3 73t1 72q0 147 -3 269.5t-7 212.5q0 12 -1.5 23.5t-1.5 21.5zM367 1671q0 39 27.5 66.5t68.5 27.5 q39 0 66.5 -27.5t27.5 -66.5q0 -41 -27.5 -68.5t-66.5 -27.5q-41 0 -68.5 27.5t-27.5 68.5zM776 1671q0 39 27.5 66.5t66.5 27.5q41 0 69 -27.5t28 -66.5q0 -41 -28 -68.5t-69 -27.5q-39 0 -66.5 27.5t-27.5 68.5z" />
<glyph unicode="&#xdd;" horiz-adv-x="1191" d="M25 1399q20 -4 45.5 -5t48.5 -1q29 0 55.5 2t52.5 6l192 -361l208 -366q51 78 103 168l105 184l100 189l91 186q16 -4 35.5 -6t40.5 -2h30q13 0 27 4l-170 -263l-135 -215q-59 -97 -104 -179l-80 -148q0 -74 1 -158l2 -165q1 -81 4 -153.5t7 -123.5q-25 4 -46.5 6 t-43.5 2q-45 0 -90 -6q10 111 12 262.5t2 312.5l-2 6l-57 100l-84 143l-99 166l-99 167l-88 145q-39 66 -64 103zM477 1497l287 291q18 18 42.5 33.5t43.5 15.5q16 0 36.5 -14.5t20.5 -42.5q0 -33 -23.5 -53.5t-45.5 -34.5l-152 -98l-149 -97h-60z" />
<glyph unicode="&#xde;" horiz-adv-x="970" d="M90 -8q6 135 11 263t5 263v356q0 133 -5 263.5t-11 263.5q23 -4 45.5 -6t46.5 -2q23 0 44.5 2t43.5 6q-6 -68 -10 -132.5t-4 -138.5h266q205 0 322 -83.5t117 -268.5q0 -111 -44.5 -184.5t-116 -117.5t-160.5 -61.5t-179 -17.5q-57 0 -108.5 2t-96.5 7v-127q0 -86 2 -165 t10 -120q-43 6 -86 6q-25 0 -47 -2t-45 -6zM256 463q33 -6 79 -8t93 -2q70 0 135.5 19.5t115.5 59t81 100t31 144.5q0 53 -17.5 106.5t-57.5 95.5t-105.5 68.5t-159.5 26.5h-195v-610z" />
<glyph unicode="&#xdf;" horiz-adv-x="1060" d="M78 -8q4 51 7 122.5t4 150.5l2 160q1 81 1 153v256q0 59 -1 112t-3 88q0 16 -1 28.5t-1 22.5q0 125 39 213t99.5 143.5t133 81t140.5 25.5q45 0 97 -16t95 -46t72 -71t29 -92q0 -86 -47.5 -154.5t-96.5 -124.5q-39 -41 -70.5 -85t-31.5 -87q0 -35 15 -62.5t42 -52 t61 -46.5l70 -47l90 -60q45 -31 81 -68.5t58.5 -83.5t22.5 -106q0 -66 -32.5 -133.5t-88 -121.5t-127 -88t-149.5 -34q-59 0 -109.5 12.5t-83.5 28.5q10 23 18.5 50.5t12.5 50.5q29 -35 85 -60.5t120 -25.5q45 0 87 16t74.5 46t52 73t19.5 96q0 51 -20.5 93t-54 78t-75.5 67 l-83 59q-39 25 -76 52.5t-66.5 57t-47 63.5t-17.5 75q0 53 37 102t84 101q57 59 107 131.5t50 162.5q0 88 -56 145.5t-159 57.5q-76 0 -126 -28.5t-80.5 -84t-43 -136.5t-12.5 -187v-487q0 -70 1 -150l2 -159q1 -79 4.5 -151.5t7.5 -125.5q-20 4 -40 6t-42.5 2t-41 -2 t-38.5 -6zM420 123l8 -4q0 -2 -1 -4t-1 -4z" />
<glyph unicode="&#xe0;" horiz-adv-x="948" d="M61 213q0 119 79 185.5t206 88.5q106 18 170 33t97.5 31t43 37.5t9.5 54.5q0 55 -12.5 104.5t-41 87t-73.5 59t-111 21.5q-84 0 -156.5 -35.5t-109.5 -105.5h-8v92q90 68 165.5 92.5t157.5 24.5q145 0 235.5 -81t90.5 -216q0 -57 -1 -113.5t-3 -116t-3 -124t-1 -131.5 q0 -27 1 -55.5t10 -53t27.5 -40t53.5 -15.5h14q8 0 19 4v-25q-23 -10 -56 -17t-67 -7q-61 0 -95 42t-41 101q-41 -41 -78.5 -72.5t-77.5 -52t-83 -31t-94 -10.5q-49 0 -97.5 16.5t-86.5 48.5t-60.5 77t-22.5 102zM170 1444q0 29 20.5 42t36.5 13q20 0 43 -13t43 -34 l143 -145l144 -146h-59l-301 193q-23 16 -46.5 36.5t-23.5 53.5zM211 244q0 -51 16.5 -90t43 -66t60.5 -40t70 -13q84 0 152 47t104 106l9 330q-33 -10 -67 -18l-64 -15q-53 -10 -109.5 -25.5t-105 -42t-79 -68.5t-30.5 -105z" />
<glyph unicode="&#xe1;" horiz-adv-x="940" d="M31 213q0 119 78.5 185.5t205.5 88.5q106 18 170 33t97.5 31t43 37.5t9.5 54.5q0 55 -12.5 104.5t-41 87t-73.5 59t-111 21.5q-84 0 -156.5 -35.5t-109.5 -105.5h-8v92q90 68 166 92.5t157 24.5q145 0 235.5 -81t90.5 -216q0 -57 -1 -113.5t-3 -116t-3 -124t-1 -131.5 q0 -27 1 -55.5t10 -53t27.5 -40t53.5 -15.5h14q8 0 19 4v-25q-23 -10 -55.5 -17t-67.5 -7q-61 0 -95 42t-40 101q-41 -41 -79 -72.5t-78 -52t-83 -31t-94 -10.5q-49 0 -97 16.5t-86 48.5t-60.5 77t-22.5 102zM180 244q0 -51 16.5 -90t43 -66t60.5 -40t71 -13q84 0 151.5 47 t104.5 106l8 330q-33 -10 -66.5 -18l-64.5 -15q-53 -10 -109.5 -25.5t-104.5 -42t-79 -68.5t-31 -105zM338 1161l287 291q20 20 42.5 33.5t43.5 13.5q16 0 36.5 -13t20.5 -42q0 -33 -23.5 -53.5t-46.5 -36.5l-151 -96l-150 -97h-59z" />
<glyph unicode="&#xe2;" horiz-adv-x="954" d="M51 213q0 119 79 185.5t206 88.5q106 18 169.5 33t97.5 31t43 37.5t9 54.5q0 55 -12 104.5t-41 87t-74 59t-110 21.5q-84 0 -157 -35.5t-109 -105.5h-9v92q90 68 166 92.5t158 24.5q145 0 235.5 -81t90.5 -216q0 -57 -1 -113.5t-3.5 -116t-3.5 -124t-1 -131.5 q0 -27 1 -55.5t10.5 -53t28 -40t53.5 -15.5h14q8 0 18 4v-25q-23 -10 -55.5 -17t-67.5 -7q-61 0 -95 42t-40 101q-41 -41 -78.5 -72.5t-77.5 -52t-83 -31t-95 -10.5q-49 0 -97 16.5t-86 48.5t-60.5 77t-22.5 102zM170 1161l119 164q55 78 121 162h127l121 -162l120 -164h-51 l-254 223l-126 -111l-126 -112h-51zM201 244q0 -51 16 -90t43 -66t60.5 -40t70.5 -13q84 0 151.5 47t104.5 106l8 330q-33 -10 -66.5 -18l-64.5 -15q-53 -10 -109.5 -25.5t-104.5 -42t-78.5 -68.5t-30.5 -105z" />
<glyph unicode="&#xe3;" horiz-adv-x="968" d="M59 213q0 119 79 185.5t206 88.5q106 18 170 33t97.5 31t43 37.5t9.5 54.5q0 55 -12.5 104.5t-41 87t-73.5 59t-111 21.5q-84 0 -156.5 -35.5t-109.5 -105.5h-8v92q90 68 165.5 92.5t157.5 24.5q145 0 235.5 -81t90.5 -216q0 -57 -1 -113.5t-3 -116t-3 -124t-1 -131.5 q0 -27 1 -55.5t10 -53t27.5 -40t53.5 -15.5h14q8 0 18 4v-25q-23 -10 -55.5 -17t-66.5 -7q-61 0 -95 42t-41 101q-41 -41 -78.5 -72.5t-77.5 -52t-83 -31t-94 -10.5q-49 0 -97.5 16.5t-86.5 48.5t-60.5 77t-22.5 102zM154 1212q6 35 21 70t40 62.5t59.5 45t81.5 17.5 q35 0 65 -9t83 -38q61 -29 87.5 -39t53.5 -10q41 0 76 35.5t51 68.5h39q-6 -27 -19.5 -61.5t-38 -66.5t-62.5 -53.5t-93 -21.5q-57 0 -145 48q-59 31 -87 40t-53 9q-51 0 -75.5 -21.5t-42.5 -75.5h-41zM209 244q0 -51 16.5 -90t43 -66t60 -40t70.5 -13q84 0 151.5 47 t104.5 106l9 330q-33 -10 -67 -18l-65 -15q-53 -10 -109 -25.5t-104.5 -42t-79 -68.5t-30.5 -105z" />
<glyph unicode="&#xe4;" horiz-adv-x="964" d="M57 213q0 119 79 185.5t206 88.5q106 18 169.5 33t97.5 31t43.5 37.5t9.5 54.5q0 55 -12.5 104.5t-41 87t-74 59t-110.5 21.5q-84 0 -156.5 -35.5t-109.5 -105.5h-8v92q90 68 165.5 92.5t157.5 24.5q145 0 235.5 -81t90.5 -216q0 -57 -1 -113.5t-3 -116t-3 -124 t-1 -131.5q0 -27 1 -55.5t10 -53t27.5 -40t53.5 -15.5h14q8 0 18 4v-25q-23 -10 -55.5 -17t-66.5 -7q-61 0 -95 42t-41 101q-41 -41 -78.5 -72.5t-77.5 -52t-83 -31t-94 -10.5q-49 0 -97.5 16.5t-86.5 48.5t-60.5 77t-22.5 102zM180 1313q0 41 28 68.5t68 27.5 q39 0 67 -27.5t28 -68.5q0 -39 -28 -67.5t-67 -28.5q-41 0 -68.5 28.5t-27.5 67.5zM207 244q0 -51 16.5 -90t43 -66t60 -40t70.5 -13q84 0 151.5 47t104.5 106l8 330q-33 -10 -66.5 -18l-64.5 -15q-53 -10 -109 -25.5t-104.5 -42t-79 -68.5t-30.5 -105zM590 1313 q0 41 27.5 68.5t66.5 27.5q41 0 68.5 -27.5t27.5 -68.5q0 -39 -27.5 -67.5t-68.5 -28.5q-39 0 -66.5 28.5t-27.5 67.5z" />
<glyph unicode="&#xe5;" horiz-adv-x="952" d="M51 213q0 119 79 185.5t206 88.5q106 18 169.5 33t97.5 31t43 37.5t9 54.5q0 55 -12 104.5t-41 87t-74 59t-110 21.5q-84 0 -157 -35.5t-109 -105.5h-9v92q90 68 166 92.5t158 24.5q145 0 235.5 -81t90.5 -216q0 -57 -1 -113.5t-3.5 -116t-3.5 -124t-1 -131.5 q0 -27 1 -55.5t10.5 -53t28 -40t53.5 -15.5h14q8 0 18 4v-25q-23 -10 -55.5 -17t-67.5 -7q-61 0 -95 42t-40 101q-41 -41 -78.5 -72.5t-77.5 -52t-83 -31t-95 -10.5q-49 0 -97 16.5t-86 48.5t-60.5 77t-22.5 102zM201 244q0 -51 16 -90t43 -66t60.5 -40t70.5 -13 q84 0 151.5 47t104.5 106l8 330q-33 -10 -66.5 -18l-64.5 -15q-53 -10 -109.5 -25.5t-104.5 -42t-78.5 -68.5t-30.5 -105zM272 1329q0 41 15.5 78t43 64.5t64.5 44t80 16.5q41 0 78 -16.5t64.5 -44t43 -64.5t15.5 -78t-15.5 -76.5t-43 -63.5t-64.5 -44.5t-80 -16.5 q-41 0 -78 16.5t-64.5 44.5t-43 63.5t-15.5 76.5zM338 1329q0 -55 39 -95t96 -40t97 40t40 95q0 57 -40 96t-95 39q-59 0 -98 -39t-39 -96z" />
<glyph unicode="&#xe6;" horiz-adv-x="1605" d="M72 213q0 119 78.5 185.5t205.5 88.5q106 18 170 33t97.5 31t43 37.5t9.5 54.5q0 55 -12.5 104.5t-41 87t-74.5 59t-112 21.5q-82 0 -154.5 -35.5t-109.5 -105.5h-8v92q90 68 165.5 92.5t157.5 24.5q33 0 72 -6t81 -23.5t82 -49.5t77 -83q55 74 136 118t179 44 q106 0 185 -33t131.5 -89t78 -132t25.5 -160v-34q0 -18 -2 -37q-29 0 -73 1t-70 1q-147 6 -293 6q-41 0 -90.5 -1t-90.5 -5q-23 0 -51 -1t-51 -1q-2 -16 -2 -34v-34q0 -84 24.5 -155.5t71.5 -125t116 -84t159 -30.5q82 0 167 41t142 100q-4 -23 -5 -42t-5 -42 q-61 -49 -152.5 -86t-185.5 -37q-145 0 -257 67.5t-169 199.5q-18 -49 -48 -97.5t-75 -86.5t-108.5 -60.5t-147.5 -22.5q-49 0 -97 16.5t-86 48.5t-60.5 77t-22.5 102zM221 244q0 -94 56.5 -151.5t148.5 -57.5q43 0 86 14t77 44t56.5 73t26.5 100q2 35 2 71v71q0 23 1 54.5 t1 55.5q-33 -10 -68 -18t-63 -15q-53 -10 -109.5 -25.5t-104.5 -42t-79 -68.5t-31 -105zM817 557q16 0 46 -1t46 -1q47 -2 95.5 -3t93.5 -1q41 0 95 1t97 3q23 0 48.5 1t45.5 1q0 57 -10 125t-38.5 124t-81 94t-136.5 38q-78 0 -133 -37t-91 -94t-54.5 -124t-22.5 -126z M1491 176q0 4 1 6t1 6l2 -10h-2z" />
<glyph unicode="&#xe7;" horiz-adv-x="968" d="M61 475q0 133 45.5 229.5t118 158t165.5 91t192 29.5q106 0 193 -24.5t128 -59.5q-27 -51 -41 -125l-4 -4q-16 27 -41.5 56.5t-59.5 54t-77 41t-92 16.5q-98 0 -167 -35t-113 -97.5t-64.5 -146.5t-20.5 -182q0 -219 95.5 -330.5t275.5 -111.5q82 0 166 40t141 99 q-4 -20 -5 -41.5t-3 -42.5q-57 -47 -143 -81t-177 -38l-55 -151q45 18 80 18q78 0 120 -38t42 -99q0 -41 -19.5 -72.5t-52.5 -52t-76 -31t-90 -10.5q-53 0 -97 10.5t-73 20.5l19 45q25 -8 63.5 -14.5t81.5 -6.5q57 0 96 26t39 73q0 51 -33.5 71.5t-82.5 20.5q-63 0 -84 -10 q-2 0 -2 2l-3 2l72 196q-84 6 -166 38t-146.5 93.5t-104.5 153.5t-40 219zM901 174q2 4 2 7t2 7l2 -10h-2z" />
<glyph unicode="&#xe8;" horiz-adv-x="972" d="M55 446q0 248 120 392.5t345 144.5q106 0 185 -33t131.5 -89t78 -132t25.5 -160v-34q0 -18 -2 -37q-29 0 -73 1t-70 1q-147 6 -293 6q-41 0 -90.5 -1t-89.5 -5q-23 0 -51.5 -1t-51.5 -1q-2 -16 -2 -34v-34q0 -84 24.5 -155.5t71.5 -125t116 -84t159 -30.5q82 0 167 41 t142 100q-4 -23 -5 -42t-5 -42q-61 -49 -152.5 -86t-185.5 -37q-111 0 -201 37t-155.5 100.5t-101.5 150.5t-36 189zM211 1444q0 29 20.5 42t36.5 13q23 0 44.5 -13t41.5 -34l144 -145l143 -146h-57l-303 193q-23 16 -46.5 36.5t-23.5 53.5zM223 557q16 0 46 -1t46 -1 q47 -2 95.5 -3t93.5 -1q41 0 95 1t97 3q23 0 48.5 1t46.5 1q0 57 -10.5 125t-39 124t-81 94t-136.5 38q-78 0 -133 -37t-91 -94t-54.5 -124t-22.5 -126zM897 176q0 4 1 6t1 6l2 -10h-2z" />
<glyph unicode="&#xe9;" horiz-adv-x="976" d="M33 446q0 248 119.5 392.5t345.5 144.5q106 0 185 -33t131 -89t77.5 -132t25.5 -160v-34q0 -18 -2 -37q-29 0 -72.5 1t-70.5 1q-147 6 -293 6q-41 0 -90 -1t-90 -5q-23 0 -51.5 -1t-50.5 -1q-2 -16 -2 -34v-34q0 -84 24.5 -155.5t71.5 -125t115.5 -84t158.5 -30.5 q82 0 167 41t142 100q-4 -23 -5 -42t-5 -42q-61 -49 -152 -86t-186 -37q-111 0 -200.5 37t-155.5 100.5t-101.5 150.5t-35.5 189zM201 557q16 0 45.5 -1t46.5 -1q47 -2 95 -3t93 -1q41 0 95.5 1t97.5 3q23 0 48.5 1t45.5 1q0 57 -10 125t-39 124t-81 94t-136 38 q-78 0 -133.5 -37t-91 -94t-54 -124t-22.5 -126zM387 1161l287 291q23 20 44 33.5t42 13.5q16 0 36.5 -13t20.5 -42q0 -33 -23.5 -53.5t-45.5 -36.5l-151 -96l-151 -97h-59zM874 176q0 4 1.5 6t1.5 6l2 -10h-2z" />
<glyph unicode="&#xea;" horiz-adv-x="985" d="M49 446q0 248 120 392.5t345 144.5q106 0 185 -33t131.5 -89t78 -132t25.5 -160v-34q0 -18 -2 -37q-29 0 -73 1t-71 1q-147 6 -292 6q-41 0 -90.5 -1t-90.5 -5q-23 0 -51 -1t-51 -1q-2 -16 -2 -34v-34q0 -84 24.5 -155.5t71.5 -125t116 -84t159 -30.5q82 0 167 41 t142 100q-4 -23 -5 -42t-5 -42q-61 -49 -152.5 -86t-185.5 -37q-111 0 -201 37t-155.5 100.5t-101.5 150.5t-36 189zM215 1161l120 164q54 78 120 162h129l119 -162l120 -164h-51l-254 223l-125 -111l-127 -112h-51zM217 557q16 0 46 -1t46 -1q47 -2 95.5 -3t93.5 -1 q41 0 95 1t97 3q23 0 48.5 1t45.5 1q0 57 -10 125t-38.5 124t-81 94t-136.5 38q-78 0 -133 -37t-91 -94t-54.5 -124t-22.5 -126zM891 176q0 4 1 6t1 6l2 -10h-2z" />
<glyph unicode="&#xeb;" horiz-adv-x="999" d="M55 446q0 248 120 392.5t345 144.5q106 0 185 -33t131.5 -89t78 -132t25.5 -160v-34q0 -18 -2 -37q-29 0 -73 1t-70 1q-147 6 -293 6q-41 0 -90.5 -1t-89.5 -5q-23 0 -51.5 -1t-51.5 -1q-2 -16 -2 -34v-34q0 -84 24.5 -155.5t71.5 -125t116 -84t159 -30.5q82 0 167 41 t142 100q-4 -23 -5 -42t-5 -42q-61 -49 -152.5 -86t-185.5 -37q-111 0 -201 37t-155.5 100.5t-101.5 150.5t-36 189zM223 557q16 0 46 -1t46 -1q47 -2 95.5 -3t93.5 -1q41 0 95 1t97 3q23 0 48.5 1t46.5 1q0 57 -10.5 125t-39 124t-81 94t-136.5 38q-78 0 -133 -37t-91 -94 t-54.5 -124t-22.5 -126zM225 1313q0 41 28 68.5t69 27.5q39 0 66.5 -27.5t27.5 -68.5q0 -39 -28 -67.5t-66 -28.5q-41 0 -69 28.5t-28 67.5zM635 1313q0 41 27.5 68.5t68.5 27.5q39 0 66.5 -27.5t27.5 -68.5q0 -39 -27.5 -67.5t-66.5 -28.5q-41 0 -68.5 28.5t-27.5 67.5z M897 176q0 4 1 6t1 6l2 -10h-2z" />
<glyph unicode="&#xec;" horiz-adv-x="514" d="M25 1444q0 29 20.5 42t36.5 13q20 0 41.5 -13t44.5 -34l142 -145l145 -146h-60l-301 193q-23 16 -46 36.5t-23 53.5zM256 -8q8 88 11 186t3 191v215q0 92 -3 190t-11 187q20 -4 39.5 -6.5t42 -2.5t41 2t39.5 7q-8 -88 -11.5 -186.5t-3.5 -190.5v-215q0 -92 3.5 -190.5 t11.5 -186.5q-20 4 -39 6t-41.5 2t-42 -2t-39.5 -6z" />
<glyph unicode="&#xed;" horiz-adv-x="514" d="M59 1161l287 291q20 20 42 33.5t42 13.5q16 0 37.5 -13t21.5 -42q0 -33 -24.5 -53.5t-46.5 -36.5l-151 -96l-150 -97h-58zM92 -8q8 88 11 186t3 191v215q0 92 -3 190t-11 187q20 -4 39 -6.5t41.5 -2.5t41.5 2t40 7q-8 -88 -11 -186.5t-3 -190.5v-215q0 -92 3 -190.5 t11 -186.5q-20 4 -39.5 6t-42 2t-41.5 -2t-39 -6z" />
<glyph unicode="&#xee;" horiz-adv-x="681" d="M37 1161l119 164q55 78 120 162h127l122 -162l120 -164h-51l-254 223l-126 -111l-126 -112h-51zM258 -8q10 88 13 186t3 191v215q0 92 -3 190t-13 187q23 -4 41 -6.5t40.5 -2.5t41 2t41.5 7q-10 -88 -13 -186.5t-3 -190.5v-215q0 -92 3 -190.5t13 -186.5q-23 4 -41.5 6 t-41 2t-40.5 -2t-41 -6z" />
<glyph unicode="&#xef;" horiz-adv-x="675" d="M37 1313q0 41 27.5 68.5t68.5 27.5q39 0 66.5 -27.5t27.5 -68.5q0 -39 -27.5 -67.5t-66.5 -28.5q-41 0 -68.5 28.5t-27.5 67.5zM254 -8q10 88 13 186t3 191v215q0 92 -3 190t-13 187q23 -4 41 -6.5t40.5 -2.5t41 2t41.5 7q-10 -88 -13.5 -186.5t-3.5 -190.5v-215 q0 -92 3.5 -190.5t13.5 -186.5q-23 4 -41.5 6t-41 2t-40.5 -2t-41 -6zM446 1313q0 41 28 68.5t67 27.5q41 0 68.5 -27.5t27.5 -68.5q0 -39 -27.5 -67.5t-68.5 -28.5q-39 0 -67 28.5t-28 67.5z" />
<glyph unicode="&#xf0;" horiz-adv-x="1099" d="M66 475q0 139 44 235.5t113.5 157t157.5 88t178 27.5q25 0 49.5 -3t53.5 -13l12 14q-63 76 -130 146.5t-143 140.5l-132 -45l-136 -47q-10 16 -15 29.5t-14 25.5l128 35l135 39l-123 106l-129 107q35 10 60.5 14t60.5 14l140 -104l126 -99q72 23 135 45.5t121 45.5 q10 -23 33 -52q-66 -16 -128 -34l-122 -37q135 -115 232 -220.5t158.5 -208t91.5 -202.5t30 -205q0 -139 -44 -235.5t-114 -155.5t-159 -87t-177 -28q-90 0 -178 28t-157.5 87t-113.5 155.5t-44 235.5zM227 475q0 -90 16.5 -173t54.5 -146.5t101.5 -102.5t159.5 -39 q94 0 158.5 39t102.5 102.5t54.5 146.5t16.5 173t-16.5 173t-54.5 147.5t-102.5 103.5t-158.5 39q-96 0 -159.5 -39t-101.5 -103.5t-54.5 -147.5t-16.5 -173z" />
<glyph unicode="&#xf1;" horiz-adv-x="966" d="M76 -8q8 88 11 186t3 191v215q0 92 -3 190t-11 187q20 -4 39.5 -6.5t42.5 -2.5q14 0 31.5 2t37.5 7q-4 -43 -4 -95v-94q70 100 154 155.5t194 55.5q55 0 112.5 -16.5t104 -56.5t76 -107.5t29.5 -171.5q0 -41 -1 -84t-3 -90q-2 -49 -3 -102.5t-1 -106.5v-129q0 -61 4 -127 q-18 4 -38 6t-40 2t-38.5 -2t-35.5 -6q2 39 3 79t3 76q4 74 6.5 146t2.5 149v127q0 158 -64.5 242t-173.5 84q-150 0 -220.5 -92t-70.5 -258v-176q0 -92 3 -190.5t12 -186.5q-20 4 -39 6t-41.5 2t-42 -2t-39.5 -6zM156 1212q6 35 21.5 70t40 62.5t59 45t81.5 17.5 q35 0 65 -9t83 -38q61 -29 88 -39t53 -10q43 0 77 35.5t50 68.5h39q-6 -27 -19.5 -61.5t-38 -66.5t-62.5 -53.5t-93 -21.5q-57 0 -145 48q-59 31 -87 40t-53 9q-51 0 -75.5 -21.5t-42.5 -75.5h-41z" />
<glyph unicode="&#xf2;" horiz-adv-x="1081" d="M57 475q0 139 44 235.5t114 157t158 88t178 27.5q88 0 177 -27.5t158.5 -88t113.5 -157t44 -235.5t-44 -235.5t-113.5 -155.5t-158.5 -87t-177 -28q-90 0 -178 28t-158 87t-114 155.5t-44 235.5zM219 475q0 -90 16.5 -173t54.5 -146.5t101.5 -102.5t159.5 -39 q94 0 158.5 39t102.5 102.5t54.5 146.5t16.5 173t-16.5 173t-54.5 147.5t-102.5 103.5t-158.5 39q-96 0 -159.5 -39t-101.5 -103.5t-54.5 -147.5t-16.5 -173zM238 1444q0 29 20.5 42t36.5 13q20 0 42.5 -13t43.5 -34l142 -145l145 -146h-60l-301 193q-23 16 -46 36.5 t-23 53.5z" />
<glyph unicode="&#xf3;" horiz-adv-x="1079" d="M35 475q0 139 44 235.5t113.5 157t157.5 88t178 27.5q88 0 177.5 -27.5t159 -88t113.5 -157t44 -235.5t-44 -235.5t-113.5 -155.5t-159 -87t-177.5 -28q-90 0 -178 28t-157.5 87t-113.5 155.5t-44 235.5zM197 475q0 -90 16 -173t54 -146.5t101.5 -102.5t159.5 -39 q94 0 159 39t102.5 102.5t54 146.5t16.5 173t-16.5 173t-54 147.5t-102 103.5t-159.5 39q-96 0 -159.5 -39t-101.5 -103.5t-54 -147.5t-16 -173zM414 1161l286 291q20 20 43 33.5t43 13.5q16 0 37 -13t21 -42q0 -33 -23.5 -53.5t-46.5 -36.5l-151 -96l-150 -97h-59z" />
<glyph unicode="&#xf4;" horiz-adv-x="1089" d="M51 475q0 139 44 235.5t114 157t158 88t178 27.5q88 0 177 -27.5t158.5 -88t113.5 -157t44 -235.5t-44 -235.5t-113.5 -155.5t-158.5 -87t-177 -28q-90 0 -178 28t-158 87t-114 155.5t-44 235.5zM213 475q0 -90 16.5 -173t54.5 -146.5t101.5 -102.5t159.5 -39 q94 0 158.5 39t102.5 102.5t54.5 146.5t16.5 173t-16.5 173t-54.5 147.5t-102.5 103.5t-158.5 39q-96 0 -159.5 -39t-101.5 -103.5t-54.5 -147.5t-16.5 -173zM242 1161l118 164q55 78 121 162h127l122 -162l120 -164h-51l-254 223l-126 -111l-126 -112h-51z" />
<glyph unicode="&#xf5;" horiz-adv-x="1099" d="M55 475q0 139 44 235.5t114 157t158 88t178 27.5q88 0 177 -27.5t158.5 -88t113.5 -157t44 -235.5t-44 -235.5t-113.5 -155.5t-158.5 -87t-177 -28q-90 0 -178 28t-158 87t-114 155.5t-44 235.5zM217 475q0 -90 16.5 -173t54.5 -146.5t101.5 -102.5t159.5 -39 q94 0 158.5 39t102.5 102.5t54.5 146.5t16.5 173t-16.5 173t-54.5 147.5t-102.5 103.5t-158.5 39q-96 0 -159.5 -39t-101.5 -103.5t-54.5 -147.5t-16.5 -173zM221 1212q6 35 21.5 70t40 62.5t59.5 45t82 17.5q35 0 64.5 -9t82.5 -38q61 -29 88 -39t54 -10q43 0 76.5 35.5 t50.5 68.5h39q-6 -27 -19.5 -61.5t-38 -66.5t-62.5 -53.5t-93 -21.5q-57 0 -146 48q-59 31 -86.5 40t-52.5 9q-51 0 -75.5 -21.5t-43.5 -75.5h-41z" />
<glyph unicode="&#xf6;" horiz-adv-x="1099" d="M55 475q0 139 44 235.5t114 157t158 88t178 27.5q88 0 177 -27.5t158.5 -88t113.5 -157t44 -235.5t-44 -235.5t-113.5 -155.5t-158.5 -87t-177 -28q-90 0 -178 28t-158 87t-114 155.5t-44 235.5zM217 475q0 -90 16.5 -173t54.5 -146.5t101.5 -102.5t159.5 -39 q94 0 158.5 39t102.5 102.5t54.5 146.5t16.5 173t-16.5 173t-54.5 147.5t-102.5 103.5t-158.5 39q-96 0 -159.5 -39t-101.5 -103.5t-54.5 -147.5t-16.5 -173zM250 1313q0 41 27.5 68.5t68.5 27.5q39 0 66.5 -27.5t27.5 -68.5q0 -39 -27.5 -67.5t-66.5 -28.5 q-41 0 -68.5 28.5t-27.5 67.5zM659 1313q0 41 28 68.5t67 27.5q41 0 68.5 -27.5t27.5 -68.5q0 -39 -27.5 -67.5t-68.5 -28.5q-39 0 -67 28.5t-28 67.5z" />
<glyph unicode="&#xf7;" horiz-adv-x="1056" d="M12 471v88h1032v-88h-1032zM420 109q0 43 32.5 75.5t75.5 32.5t76 -32.5t33 -75.5q0 -45 -33 -77t-76 -32t-75.5 32t-32.5 77zM420 922q0 45 32.5 76.5t75.5 31.5t76 -31.5t33 -76.5q0 -43 -33 -75t-76 -32t-75.5 32t-32.5 75z" />
<glyph unicode="&#xf8;" horiz-adv-x="1189" d="M82 -61q27 25 73 72.5t87 99.5q-59 66 -94 153.5t-35 210.5q0 139 44 235.5t113.5 157t157.5 88t178 27.5q82 0 166 -24.5t158 -79.5q45 47 84 93t59 75q10 -10 15.5 -17.5t19.5 -13.5q-29 -23 -68 -65l-84 -93q66 -70 106 -160t40 -223q0 -139 -44 -235.5t-115 -155.5 t-160 -87t-177 -28q-86 0 -175 28t-161 87l-88 -98q-41 -47 -65 -78q-10 10 -15.5 17.5t-19.5 13.5zM274 475q0 -72 11.5 -142.5t36.5 -135.5l540 604q-37 61 -102.5 99t-153.5 38q-96 0 -159.5 -39t-101.5 -103.5t-54.5 -147.5t-16.5 -173zM340 164q41 -68 105.5 -109 t160.5 -41q94 0 158.5 39t102.5 102.5t54.5 146.5t16.5 173q0 76 -13.5 153t-45.5 142z" />
<glyph unicode="&#xf9;" horiz-adv-x="935" d="M72 299q0 59 1 108.5t3 92.5q2 39 2 72v69q0 72 -1 152.5t-3 167.5q18 -4 38.5 -6.5t39 -2.5t36 2t35.5 7q-10 -123 -14 -267.5t-4 -298.5q0 -111 19.5 -169t47.5 -89q31 -35 77 -58.5t110 -23.5q92 0 152.5 40t88.5 100q14 33 23.5 59.5t13.5 68.5t5 113.5t1 194.5v170 q0 86 -4 160q18 -4 36 -6.5t40.5 -2.5t40.5 2t35 7q-4 -82 -7 -158t-5 -152t-2 -152v-159q0 -90 1 -176t5 -172q-16 4 -35 6t-35 2q-35 0 -68 -6q3 36 4 79v22q-1 56 -1 100q-66 -111 -154 -168.5t-186 -57.5q-158 0 -247 86t-89 244zM168 1444q0 29 20.5 42t36.5 13 q20 0 43 -13t43 -34l143 -145l144 -146h-59l-301 193q-23 16 -46.5 36.5t-23.5 53.5z" />
<glyph unicode="&#xfa;" horiz-adv-x="935" d="M43 299q0 59 1 108.5t3 92.5q2 39 2 72v69q0 72 -1 152.5t-3 167.5q18 -4 38.5 -6.5t39 -2.5t36 2t36.5 7q-10 -123 -14.5 -267.5t-4.5 -298.5q0 -111 19.5 -169t48.5 -89q31 -35 77 -58.5t109 -23.5q92 0 152.5 40t89.5 100q14 33 23.5 59.5t13.5 68.5t5 113.5t1 194.5 v170q0 86 -4 160q18 -4 35.5 -6.5t40 -2.5t41 2t34.5 7q-4 -82 -7 -158t-5 -152t-2 -152v-159q0 -90 1 -176t5 -172q-16 4 -34.5 6t-35.5 2q-35 0 -67 -6q3 36 3 79v22q-1 56 -1 100q-66 -111 -154 -168.5t-186 -57.5q-158 0 -247 86t-89 244zM338 1161l287 291 q20 20 42.5 33.5t43.5 13.5q16 0 36.5 -13t20.5 -42q0 -33 -23.5 -53.5t-46.5 -36.5l-151 -96l-150 -97h-59z" />
<glyph unicode="&#xfb;" horiz-adv-x="952" d="M66 299q0 59 1 108.5t3 92.5q2 39 2 72v69q0 72 -1 152.5t-3 167.5q18 -4 38.5 -6.5t39 -2.5t36 2t35.5 7q-10 -123 -14 -267.5t-4 -298.5q0 -111 19.5 -169t47.5 -89q31 -35 77 -58.5t110 -23.5q92 0 152.5 40t88.5 100q14 33 23.5 59.5t13.5 68.5t5 113.5t1 194.5v170 q0 86 -4 160q18 -4 35.5 -6.5t40 -2.5t41 2t35.5 7l-7.5 -158t-5.5 -152t-2 -152v-159q0 -90 1 -176t6 -172q-16 4 -35 6t-35 2q-35 0 -68 -6q3 36 4 79q0 11 -1 22q-1 56 -1 100q-66 -111 -153.5 -168.5t-186.5 -57.5q-158 0 -246.5 86t-88.5 244zM172 1161l119 164 q55 78 121 162h127l121 -162l120 -164h-51l-254 223l-126 -111l-126 -112h-51z" />
<glyph unicode="&#xfc;" horiz-adv-x="964" d="M72 299q0 59 1 108.5t3 92.5q2 39 2 72v69q0 72 -1 152.5t-3 167.5q18 -4 38.5 -6.5t39 -2.5t36 2t35.5 7q-10 -123 -14 -267.5t-4 -298.5q0 -111 19.5 -169t47.5 -89q31 -35 77 -58.5t110 -23.5q92 0 152.5 40t88.5 100q14 33 23.5 59.5t13.5 68.5t5 113.5t1 194.5v170 q0 86 -4 160q18 -4 36 -6.5t40.5 -2.5t40.5 2t35 7q-4 -82 -7 -158t-5 -152t-2 -152v-159q0 -90 1 -176t5 -172q-16 4 -35 6t-35 2q-35 0 -68 -6q3 36 4 79v22q-1 56 -1 100q-66 -111 -154 -168.5t-186 -57.5q-158 0 -247 86t-89 244zM182 1313q0 41 28 68.5t69 27.5 q39 0 66.5 -27.5t27.5 -68.5q0 -39 -28 -67.5t-66 -28.5q-41 0 -69 28.5t-28 67.5zM592 1313q0 41 27.5 68.5t66.5 27.5q41 0 68.5 -27.5t27.5 -68.5q0 -39 -27.5 -67.5t-68.5 -28.5q-39 0 -66.5 28.5t-27.5 67.5z" />
<glyph unicode="&#xfd;" horiz-adv-x="964" d="M31 958q16 -4 36.5 -5t38.5 -1q23 0 45.5 2t43.5 7q55 -174 127 -353l147 -358q8 -16 17 -42l24 -63q45 94 89 198l85 208q41 104 78 207.5t67 199.5q31 -6 62 -6h25q11 0 24 4l-79 -169l-117 -257l-136 -304l-136 -310l-115 -274q-50 -125 -72 -197q-31 8 -66 8 q-10 0 -23.5 -1t-23.5 -3q80 133 146.5 264t119.5 260v9l-57 144l-74 179l-80 194l-79 187l-68 160zM371 1161l286 291q20 20 43 33.5t43 13.5q16 0 37 -13t21 -42q0 -33 -23.5 -53.5t-46.5 -36.5l-151 -96l-150 -97h-59z" />
<glyph unicode="&#xfe;" horiz-adv-x="1024" d="M92 1540q20 -4 39 -6t41.5 -2t41.5 2t40 6q-4 -53 -7 -123.5t-5 -149.5t-2 -160v-153v-190l16 -4q16 33 44 71.5t70 72.5t99 56.5t135 22.5t151.5 -28.5t132 -90t94.5 -157t36 -226.5q0 -129 -38 -225t-100.5 -159.5t-141.5 -95.5t-158 -32q-113 0 -193 51.5t-127 149.5 l-16 -4l-4 -135q0 -70 1 -150l2 -159q1 -79 4 -151.5t7 -125.5q-20 4 -39.5 6t-42 2t-41 -2t-39.5 -6q4 51 7 123t4 150l2 160q1 81 1 153v923q0 69 -1 150l-2 159q-1 79 -4 151.5t-7 125.5zM240 467q0 -219 79.5 -330.5t233.5 -111.5q76 0 133 35.5t95 97t56.5 145.5 t18.5 180q0 129 -26.5 212t-69.5 132.5t-96.5 68.5t-104.5 19q-88 0 -148.5 -35.5t-98.5 -96t-55 -142.5t-17 -174z" />
<glyph unicode="&#xff;" horiz-adv-x="970" d="M39 958q16 -4 36.5 -5t39.5 -1q23 0 45 2t43 7q55 -174 127 -353l147 -358q8 -16 18 -42l23 -63q45 94 89 198l85 208q41 104 78 207.5t68 199.5q31 -6 61 -6h26q11 0 23 4l-79 -169l-116 -257l-137 -304l-136 -310l-114 -274q-50 -125 -73 -197q-31 8 -66 8 q-10 0 -23.5 -1t-23.5 -3q80 133 146.5 264t119.5 260v9l-57 144l-74 179l-79 194l-79 187l-69 160zM195 1313q0 41 27.5 68.5t68.5 27.5q39 0 66.5 -27.5t27.5 -68.5q0 -39 -27.5 -67.5t-66.5 -28.5q-41 0 -68.5 28.5t-27.5 67.5zM604 1313q0 41 27.5 68.5t66.5 27.5 q41 0 69 -27.5t28 -68.5q0 -39 -28 -67.5t-69 -28.5q-39 0 -66.5 28.5t-27.5 67.5z" />
<glyph unicode="&#x152;" horiz-adv-x="2060" d="M66 672q0 184 56 325.5t154.5 237.5t233.5 145t295 49q129 0 222 -28.5t155.5 -68.5t100.5 -83t56 -69q4 72 4 124t-4 99q88 -4 166 -7t162 -3q80 0 162 2t162 6q-4 -14 -5 -25.5t-1 -27.5q0 -29 6 -50q-29 6 -63 10.5t-87 8.5t-136 6t-210 2q0 -23 -1 -49.5t-3 -48.5 q-6 -139 -6 -275v-182q113 0 189.5 1t126.5 3t82 4t56 4h9q-6 -23 -6 -45q0 -25 6 -45h-11q-25 2 -56.5 4t-81.5 4t-126 3.5t-188 1.5v-222q0 -154 6 -307q2 -25 3 -54.5t1 -55.5q215 0 334 6t176 14q-6 -25 -6 -47.5t6 -46.5q-88 4 -168 6t-168 2q-86 0 -169 -3t-173 -7 q4 47 6 102t2 115q-39 -39 -89 -82t-118.5 -79t-156.5 -59.5t-201 -23.5q-145 0 -274 49t-224.5 140.5t-150.5 222.5t-55 297zM250 696q0 -176 44 -303t118.5 -211t175 -124t213.5 -40q127 0 229.5 49.5t174 138.5t109.5 214t38 276q0 184 -40 313.5t-111 210t-167 117.5 t-209 37q-121 0 -226 -40t-183 -124t-122 -212t-44 -302z" />
<glyph unicode="&#x153;" horiz-adv-x="1837" d="M72 475q0 139 44 235.5t114.5 157t158.5 88t178 27.5q111 0 219.5 -45t180.5 -143q63 92 158.5 140t220.5 48q106 0 185 -32.5t131 -89t77.5 -132.5t25.5 -160v-34q0 -18 -2 -37q-29 0 -72.5 1t-70.5 1q-147 6 -293 6q-41 0 -90 -1t-90 -5q-25 0 -52.5 -1t-50.5 -1 q-2 -16 -2 -34v-34q0 -84 25 -155.5t72 -125t115.5 -84t156.5 -30.5q84 0 169 41t142 100q-4 -23 -5 -42t-5 -42q-61 -49 -152.5 -86t-185.5 -37q-129 0 -231.5 50.5t-171.5 140.5q-72 -102 -181.5 -146.5t-222.5 -44.5q-90 0 -178 28t-158.5 87t-114.5 155.5t-44 235.5z M233 475q0 -90 16.5 -173t55.5 -146.5t102.5 -102.5t159.5 -39q94 0 159 39t103.5 102.5t55 146.5t16.5 173t-16.5 173t-55 147.5t-103 103.5t-159.5 39q-96 0 -159.5 -39t-102.5 -103.5t-55.5 -147.5t-16.5 -173zM1049 557q16 0 44.5 -1t47.5 -1q47 -2 94 -3t94 -1 q41 0 95.5 1t97.5 3q23 0 48 1t46 1q0 57 -10.5 125t-39 124t-80.5 94t-136 38q-78 0 -133.5 -37t-91 -94t-54 -124t-22.5 -126zM1722 176q0 4 1 6t1 6l2 -10h-2z" />
<glyph unicode="&#x178;" horiz-adv-x="1193" d="M29 1399q20 -4 45.5 -5t48.5 -1q29 0 55.5 2t52.5 6l192 -361l208 -366q51 78 103 168l105 184l100 189l91 186q16 -4 35.5 -6t40.5 -2h30q13 0 27 4l-170 -263l-135 -215q-59 -97 -104 -179l-80 -148q0 -74 1 -158l2 -165q1 -81 4 -153.5t7 -123.5q-25 4 -46 6t-44 2 q-45 0 -90 -6q10 111 12 262.5t2 312.5l-2 6l-57 100l-84 143l-98 166l-100 167l-88 145q-39 66 -64 103zM317 1671q0 39 28 66.5t69 27.5q39 0 66.5 -27.5t27.5 -66.5q0 -41 -27.5 -68.5t-66.5 -27.5q-41 0 -69 27.5t-28 68.5zM727 1671q0 39 27.5 66.5t68.5 27.5 q39 0 67 -27.5t28 -66.5q0 -41 -28 -68.5t-67 -27.5q-41 0 -68.5 27.5t-27.5 68.5z" />
<glyph unicode="&#x2c6;" horiz-adv-x="724" d="M57 1161l119 164q55 78 121 162h127l122 -162l120 -164h-52l-254 223l-126 -111l-125 -112h-52z" />
<glyph unicode="&#x2dc;" horiz-adv-x="804" d="M72 1212q6 35 21.5 70t40 62.5t59 45t81.5 17.5q35 0 65 -9t83 -38q61 -29 88 -39t53 -10q43 0 77 35.5t50 68.5h39q-6 -27 -19.5 -61.5t-38 -66.5t-62.5 -53.5t-93 -21.5q-57 0 -145 48q-59 31 -87 40t-53 9q-51 0 -75.5 -21.5t-42.5 -75.5h-41z" />
<glyph unicode="&#x2013;" horiz-adv-x="1202" d="M90 430v78h1020v-78h-1020z" />
<glyph unicode="&#x2014;" horiz-adv-x="2224" d="M84 430v78h2056v-78h-2056z" />
<glyph unicode="&#x2018;" d="M20 911q0 23 7.5 41.5t17.5 34.5v-4q2 2 1 3t1 3l128 218l130 218l11.5 -4t9.5 -4l-158 -495q-6 -23 -24.5 -46.5t-57.5 -23.5q-23 0 -44.5 14t-21.5 45z" />
<glyph unicode="&#x2019;" d="M37 864l156 492q6 27 24.5 50.5t56.5 23.5q23 0 44.5 -14.5t21.5 -45.5q0 -23 -7 -41t-18 -35v4q-2 -2 -1 -3t-1 -3l-128 -218l-130 -218q-4 2 -9 4t-9 4z" />
<glyph unicode="&#x201a;" d="M37 -350l156 491q6 25 24.5 48.5t56.5 23.5q23 0 44.5 -14.5t21.5 -44.5q0 -23 -7 -40.5t-18 -33.5v4q-2 -2 -1 -3t-1 -3l-128 -219l-130 -219q-12 8 -18 10z" />
<glyph unicode="&#x201c;" horiz-adv-x="770" d="M49 911q0 23 7 41.5t18 34.5v-4q2 2 1 3t1 3l127 218l131 218q6 -2 11 -4t9 -4l-157 -495q-6 -23 -24.5 -46.5t-57.5 -23.5q-23 0 -44.5 14t-21.5 45zM406 911q0 23 7 41.5t17 34.5v-4q2 2 1 3t1 3l129 218l129 218l11.5 -4t9.5 -4l-158 -495q-6 -23 -24.5 -46.5 t-55.5 -23.5q-23 0 -45 14t-22 45z" />
<glyph unicode="&#x201d;" horiz-adv-x="772" d="M63 864l156 492q6 27 24.5 50t55.5 23q23 0 45.5 -14t22.5 -45q0 -23 -7.5 -41t-17.5 -35v4q-2 -2 -1 -3t-1 -3l-129 -218l-129 -218q-4 2 -9.5 4t-9.5 4zM420 864l155 492q6 27 24.5 50.5t57.5 23.5q23 0 44.5 -14.5t21.5 -45.5q0 -23 -7 -41t-18 -35v4q-2 -2 -1 -3 t-1 -3l-127 -218l-131 -218q-4 2 -9 4t-9 4z" />
<glyph unicode="&#x201e;" horiz-adv-x="772" d="M63 -350l156 491q6 25 24.5 48.5t55.5 23.5q23 0 45.5 -14.5t22.5 -44.5q0 -23 -7.5 -40.5t-17.5 -33.5v4q-2 -2 -1 -3t-1 -3l-129 -219l-129 -219q-13 8 -19 10zM420 -350l155 491q6 25 24.5 48.5t57.5 23.5q23 0 44.5 -14.5t21.5 -44.5q0 -23 -7 -40.5t-18 -33.5v4 q-2 -2 -1 -3t-1 -3l-127 -219l-131 -219q-12 8 -18 10z" />
<glyph unicode="&#x2022;" horiz-adv-x="819" d="M68 696q0 70 26.5 132.5t73.5 109.5t108.5 73.5t133.5 26.5q70 0 132 -26.5t109 -73.5t74 -109.5t27 -132.5q0 -72 -27 -134t-74 -108t-109.5 -74t-131.5 -28q-72 0 -133.5 28t-108.5 74t-73.5 108t-26.5 134z" />
<glyph unicode="&#x2026;" horiz-adv-x="1765" d="M82 84q0 43 32.5 74.5t75.5 31.5q45 0 77 -31.5t32 -74.5q0 -45 -31.5 -77t-77.5 -32q-43 0 -75.5 32t-32.5 77zM774 84q0 43 33 74.5t76 31.5t75.5 -31.5t32.5 -74.5q0 -45 -32.5 -77t-75.5 -32t-76 32t-33 77zM1466 84q0 43 32 74.5t77 31.5q43 0 75.5 -31.5 t32.5 -74.5q0 -45 -32.5 -77t-75.5 -32q-45 0 -77 32t-32 77z" />
<glyph unicode="&#x2039;" horiz-adv-x="403" d="M20 471l250 371q25 -31 58 -43l-224 -326l108 -167l107 -169q-16 -4 -34.5 -15t-28.5 -26l-119 188z" />
<glyph unicode="&#x203a;" horiz-adv-x="399" d="M72 145l223 324l-215 338q16 4 34.5 15.5t28.5 25.5l119 -189l117 -188l-125 -184l-125 -185q-24 31 -57 43z" />
<glyph unicode="&#x20ac;" horiz-adv-x="1181" d="M45 518q16 47 23 90q14 -4 43.5 -5t70.5 -3v53q0 23 1 48.5t3 46.5q-51 -2 -84.5 -3.5t-56.5 -5.5q16 45 23 92q18 -4 50 -5t79 -3q25 117 76 218.5t123.5 176t163.5 116.5t196 42q86 0 182 -29.5t168 -68.5q-12 -35 -22.5 -72t-20.5 -78q-8 0 -10 -1t-9 -1 q-25 43 -59.5 77t-74.5 57.5t-81 35t-79 11.5q-139 0 -244 -119t-139 -367h356q49 0 103.5 1t99.5 7q-6 -20 -13 -47l-10 -45q-41 6 -93 8.5t-99 2.5h-353q-2 -27 -3 -60t-1 -63v-27h307q49 0 103.5 1t99.5 7q-6 -20 -12 -46l-10 -44q-43 6 -95.5 8t-99.5 2h-289 q12 -115 48 -205t87.5 -151t117 -94t137.5 -33q82 0 165.5 40t155.5 114q4 -8 6 -9q-6 -27 -10 -56l-8 -58q-25 -23 -64 -41.5t-85 -31.5t-96 -20.5t-95 -7.5q-209 0 -351.5 143.5t-177.5 409.5q-49 -2 -82.5 -3t-60.5 -5zM1106 1278l4 8l4 -12q-4 0 -8 4z" />
<glyph unicode="&#x2122;" horiz-adv-x="1781" d="M57 1401q82 -4 155 -6t153 -2q78 0 153.5 2t153.5 6q-4 -16 -4 -25v-14q0 -4 4 -14q-68 4 -132.5 6t-129.5 2v-303q0 -184 6 -369q2 -31 2 -55.5t2 -53.5q-29 6 -55.5 6.5t-53.5 -6.5v13q4 80 7.5 187.5t3.5 260.5v320q-62 0 -129.5 -2t-133.5 -6q4 10 4 14v14 q0 4 -2 11.5t-4 13.5zM731 578q27 127 46 262l42 284l19.5 145.5l19.5 145.5h2q53 -119 115 -232l131 -237l115 -207l118 203l131 236l129 237h5l22 -254q6 -68 15.5 -144.5l19.5 -153.5l20 -151q10 -75 21 -137q-23 6 -47.5 6.5t-48.5 -6.5q-4 80 -10.5 182.5t-20.5 219.5 l-33 254l-53 -92l-53 -95l-65 -118l-66 -126q-33 -62 -60 -119l-45 -95l-4 -4q-41 94 -76 161l-69 131l-68 130l-115 217l-34 -260q-12 -96 -20.5 -190.5t-10.5 -192.5q-10 4 -20 4h-17q-15 0 -35 -4z" />
<glyph unicode="&#xe000;" horiz-adv-x="960" d="M0 960h960v-960h-960v960z" />
<glyph unicode="&#xfb01;" horiz-adv-x="1038" d="M47 889q2 10 2 31q0 6 -1 16t-1 16q18 0 31.5 -1t32.5 -1h84q0 61 12 132t35.5 140.5t56.5 130t74 101.5q35 35 91 64.5t114 29.5q10 0 30 -4q0 -14 -1 -30.5t-3 -30.5q-2 -25 -3 -47.5t-1 -44.5q-55 31 -117 30q-49 0 -83.5 -18.5t-56 -48t-31 -69.5t-9.5 -83 q0 -18 2 -47t6 -62.5l8.5 -71.5t10.5 -71h114q25 0 47.5 1t47.5 1q-2 -10 -2 -16v-16q0 -20 2 -31q-12 0 -29.5 1t-28.5 1q-35 2 -77 3t-76 1q0 -223 1 -450.5t7 -452.5q-18 4 -39 6t-41 2t-38.5 -2t-39.5 -6q14 229 15.5 451.5t1.5 451.5q-23 0 -56 -1t-55 -3 q-10 0 -18.5 -1t-18.5 -1zM770 1333q0 41 27.5 69t68.5 28q39 0 67 -28t28 -69q0 -39 -28 -66.5t-67 -27.5q-41 0 -68.5 27.5t-27.5 66.5zM784 -8q8 88 11.5 186t3.5 191v215q0 92 -3 190t-12 187q20 -4 40 -6.5t42.5 -2.5t41 2t38.5 7q-8 -88 -11 -186.5t-3 -190.5v-215 q0 -92 3 -190.5t11 -186.5q-20 4 -38.5 6t-41 2t-42.5 -2t-40 -6z" />
<glyph unicode="&#xfb02;" horiz-adv-x="1050" d="M47 889q2 10 2 31q0 6 -1 16t-1 16q18 0 31.5 -1t32.5 -1h84q0 61 12 132t35.5 140.5t56.5 130t74 101.5q35 35 91 64.5t114 29.5q10 0 30 -4q0 -14 -1 -30.5t-3 -30.5q-2 -25 -3 -47.5t-1 -44.5q-55 31 -117 30q-49 0 -83.5 -18.5t-56 -48t-31 -69.5t-9.5 -83 q0 -18 2 -47t6 -62.5l8.5 -71.5t10.5 -71h114q25 0 47.5 1t47.5 1q-2 -10 -2 -16v-16q0 -20 2 -31q-12 0 -29.5 1t-28.5 1q-35 2 -77 3t-76 1q0 -223 1 -450.5t7 -452.5q-18 4 -39 6t-41 2t-38.5 -2t-39.5 -6q14 229 15.5 451.5t1.5 451.5q-23 0 -56 -1t-55 -3 q-10 0 -18.5 -1t-18.5 -1zM797 -8q4 51 7 122.5t4 150.5l2 160q1 81 1 153v376q0 70 -1 150l-2 159q-1 79 -4 151.5t-7 125.5q20 -4 39.5 -6t42 -2t41 2t38.5 6q-4 -53 -7 -123.5t-5 -149.5t-2 -160v-153v-376q0 -70 1 -150l2 -159q1 -79 4 -151.5t7 -125.5q-20 4 -38.5 6 t-41 2t-42 -2t-39.5 -6z" />
<glyph unicode="&#xfb03;" horiz-adv-x="1558" d="M29 889q2 10 2 31q0 6 -1 16t-1 16q18 0 31.5 -1t31.5 -1h84q0 61 13.5 132t36 140.5t55 130t73.5 101.5q37 35 92.5 64.5t112.5 29.5q10 0 31 -4q0 -14 -1 -30.5t-3 -30.5q-2 -25 -3 -47.5t-1 -44.5q-53 31 -117 30q-49 0 -84 -18.5t-56.5 -48t-30.5 -69.5t-9 -83 q0 -18 2 -47t6 -62.5t8 -71.5t10 -71h115q25 0 47.5 1t46.5 1q-2 -10 -2 -16v-16q0 -20 2 -31q-12 0 -29.5 1t-27.5 1q-35 2 -77 3t-77 1q0 -223 1 -450.5t7 -452.5q-18 4 -37.5 6t-39.5 2q-23 0 -41.5 -2t-38.5 -6q14 229 15 451.5t1 451.5q-22 0 -54 -1t-56 -3 q-10 0 -18.5 -1t-18.5 -1zM647 889q2 10 2 31q0 6 -1 16t-1 16q18 0 31.5 -1t32.5 -1h84q0 61 13 132t35.5 140.5t55.5 130t74 101.5q37 35 92 64.5t113 29.5q10 0 30 -4q0 -14 -1 -30.5t-3 -30.5q-2 -25 -3 -47.5t-1 -44.5q-53 31 -117 30q-49 0 -83.5 -18.5t-56 -48 t-31 -69.5t-9.5 -83q0 -18 2 -47t6 -62.5l8.5 -71.5t10.5 -71h114q25 0 47.5 1t47.5 1q-2 -10 -2 -16v-16q0 -20 2 -31q-12 0 -29.5 1t-28.5 1q-35 2 -76.5 3t-76.5 1q0 -223 1 -450.5t7 -452.5q-18 4 -37.5 6t-40.5 2q-23 0 -41 -2t-39 -6q14 229 15.5 451.5t1.5 451.5 q-22 0 -54 -1t-57 -3q-10 0 -18.5 -1t-18.5 -1zM1300 1333q0 41 29 69t68 28t67.5 -28t28.5 -69q0 -39 -28.5 -66.5t-67.5 -27.5t-68 27.5t-29 66.5zM1315 -8q10 88 13 186t3 191v215q0 92 -3 190t-13 187q23 -4 41 -6.5t40.5 -2.5t41 2t41.5 7q-10 -88 -13.5 -186.5 t-3.5 -190.5v-215q0 -92 3 -190.5t14 -186.5q-23 4 -41.5 6t-41 2t-40.5 -2t-41 -6z" />
<glyph unicode="&#xfb04;" horiz-adv-x="1579" d="M29 889q2 10 2 31q0 6 -1 16t-1 16q18 0 31.5 -1t31.5 -1h84q0 61 13.5 132t36 140.5t55 130t73.5 101.5q37 35 92.5 64.5t112.5 29.5q10 0 31 -4q0 -14 -1 -30.5t-3 -30.5q-2 -25 -3 -47.5t-1 -44.5q-53 31 -117 30q-49 0 -84 -18.5t-56.5 -48t-30.5 -69.5t-9 -83 q0 -18 2 -47t6 -62.5t8 -71.5t10 -71h115q25 0 47.5 1t46.5 1q-2 -10 -2 -16v-16q0 -20 2 -31q-12 0 -29.5 1t-27.5 1q-35 2 -77 3t-77 1q0 -223 1 -450.5t7 -452.5q-18 4 -37.5 6t-39.5 2q-23 0 -41.5 -2t-38.5 -6q14 229 15 451.5t1 451.5q-22 0 -54 -1t-56 -3 q-10 0 -18.5 -1t-18.5 -1zM647 889q2 10 2 31q0 6 -1 16t-1 16q18 0 31.5 -1t32.5 -1h84q0 61 13 132t35.5 140.5t55.5 130t74 101.5q37 35 92 64.5t113 29.5q10 0 30 -4q0 -14 -1 -30.5t-3 -30.5q-2 -25 -3 -47.5t-1 -44.5q-53 31 -117 30q-49 0 -83.5 -18.5t-56 -48 t-31 -69.5t-9.5 -83q0 -18 2 -47t6 -62.5l8.5 -71.5t10.5 -71h114q25 0 47.5 1t47.5 1q-2 -10 -2 -16v-16q0 -20 2 -31q-12 0 -29.5 1t-28.5 1q-35 2 -76.5 3t-76.5 1q0 -223 1 -450.5t7 -452.5q-18 4 -37.5 6t-40.5 2q-23 0 -41 -2t-39 -6q14 229 15.5 451.5t1.5 451.5 q-22 0 -54 -1t-57 -3q-10 0 -18.5 -1t-18.5 -1zM1323 -8q6 51 9 122.5t4 150.5l2 160q1 81 1 153v376q0 70 -1 150t-3 158.5t-5 151.5t-7 126q23 -4 41 -6t40.5 -2t41 2t41.5 6q-6 -53 -9 -123.5t-4 -149.5l-3 -160q-1 -81 -1 -153v-376q0 -70 1.5 -150t3.5 -159t5 -151.5 t7 -125.5q-23 4 -41.5 6t-41 2t-40.5 -2t-41 -6z" />
</font>
</defs>
</svg>
